  0
SECTION
  2
HEADER
  9
$ACADVER
  1
AC1009
  9
$DWGCODEPAGE
  3
ansi_1252
  9
$INSBASE
 10
0.0
 20
0.0
 30
0.0
  9
$EXTMIN
 10
0.0
 20
0.0
 30
0.0
  9
$EXTMAX
 10
594.0
 20
420.0
 30
0.0
  9
$LIMMIN
 10
0.0
 20
0.0
  9
$LIMMAX
 10
594.0
 20
420.0
  9
$ORTHOMODE
 70
     0
  9
$REGENMODE
 70
     1
  9
$FILLMODE
 70
     1
  9
$QTEXTMODE
 70
     0
  9
$MIRRTEXT
 70
     1
  9
$DRAGMODE
 70
     2
  9
$LTSCALE
 40
1.0
  9
$OSMODE
 70
    37
  9
$ATTMODE
 70
     1
  9
$TEXTSIZE
 40
4.9388888889
  9
$TRACEWID
 40
1.0
  9
$TEXTSTYLE
  7
STANDARD
  9
$CLAYER
  8
0
  9
$CELTYPE
  6
BYLAYER
  9
$CECOLOR
 62
   256
  9
$DIMSCALE
 40
1.0
  9
$DIMASZ
 40
4.0
  9
$DIMEXO
 40
2.0
  9
$DIMDLI
 40
3.75
  9
$DIMRND
 40
0.0
  9
$DIMDLE
 40
0.0
  9
$DIMEXE
 40
2.0
  9
$DIMTP
 40
0.0
  9
$DIMTM
 40
0.0
  9
$DIMTXT
 40
4.9388888889
  9
$DIMCEN
 40
2.5
  9
$DIMTSZ
 40
0.0
  9
$DIMTOL
 70
     0
  9
$DIMLIM
 70
     0
  9
$DIMTIH
 70
     1
  9
$DIMTOH
 70
     1
  9
$DIMSE1
 70
     0
  9
$DIMSE2
 70
     0
  9
$DIMTAD
 70
     1
  9
$DIMZIN
 70
     0
  9
$DIMBLK
  1

  9
$DIMASO
 70
     1
  9
$DIMSHO
 70
     1
  9
$DIMPOST
  1

  9
$DIMAPOST
  1

  9
$DIMALT
 70
     0
  9
$DIMALTD
 70
     3
  9
$DIMALTF
 40
0.0393700787
  9
$DIMLFAC
 40
1.0
  9
$DIMTOFL
 70
     1
  9
$DIMTVP
 40
0.0
  9
$DIMTIX
 70
     0
  9
$DIMSOXD
 70
     0
  9
$DIMSAH
 70
     0
  9
$DIMBLK1
  1

  9
$DIMBLK2
  1

  9
$DIMSTYLE
  2
ISO-25
  9
$DIMCLRD
 70
     0
  9
$DIMCLRE
 70
     0
  9
$DIMCLRT
 70
     0
  9
$DIMTFAC
 40
1.0
  9
$DIMGAP
 40
3.048
  9
$LUNITS
 70
     2
  9
$LUPREC
 70
     2
  9
$SKETCHINC
 40
1.0
  9
$FILLETRAD
 40
10.0
  9
$AUNITS
 70
     0
  9
$AUPREC
 70
     0
  9
$MENU
  1
.
  9
$ELEVATION
 40
0.0
  9
$PELEVATION
 40
0.0
  9
$THICKNESS
 40
0.0
  9
$LIMCHECK
 70
     0
  9
$CHAMFERA
 40
10.0
  9
$CHAMFERB
 40
10.0
  9
$SKPOLY
 70
     0
  9
$TDCREATE
 40
2454792.435053287
  9
$TDUPDATE
 40
2454792.435053299
  9
$TDINDWG
 40
0.0000000116
  9
$TDUSRTIMER
 40
0.0000000116
  9
$USRTIMER
 70
     1
  9
$ANGBASE
 50
0.0
  9
$ANGDIR
 70
     0
  9
$PDMODE
 70
     0
  9
$PDSIZE
 40
-1.0
  9
$PLINEWID
 40
0.0
  9
$COORDS
 70
     1
  9
$SPLFRAME
 70
     0
  9
$SPLINETYPE
 70
     6
  9
$SPLINESEGS
 70
     8
  9
$ATTDIA
 70
     0
  9
$ATTREQ
 70
     1
  9
$HANDLING
 70
     1
  9
$HANDSEED
  5
61E
  9
$SURFTAB1
 70
     6
  9
$SURFTAB2
 70
     6
  9
$SURFTYPE
 70
     6
  9
$SURFU
 70
     6
  9
$SURFV
 70
     6
  9
$UCSNAME
  2

  9
$UCSORG
 10
0.0
 20
0.0
 30
0.0
  9
$UCSXDIR
 10
1.0
 20
0.0
 30
0.0
  9
$UCSYDIR
 10
0.0
 20
1.0
 30
0.0
  9
$PUCSNAME
  2

  9
$PUCSORG
 10
0.0
 20
0.0
 30
0.0
  9
$PUCSXDIR
 10
1.0
 20
0.0
 30
0.0
  9
$PUCSYDIR
 10
0.0
 20
1.0
 30
0.0
  9
$USERI1
 70
     0
  9
$USERI2
 70
     0
  9
$USERI3
 70
     0
  9
$USERI4
 70
     0
  9
$USERI5
 70
     0
  9
$USERR1
 40
0.0
  9
$USERR2
 40
0.0
  9
$USERR3
 40
0.0
  9
$USERR4
 40
0.0
  9
$USERR5
 40
0.0
  9
$WORLDVIEW
 70
     1
  9
$SHADEDGE
 70
     3
  9
$SHADEDIF
 70
    70
  9
$TILEMODE
 70
     1
  9
$MAXACTVP
 70
    64
  9
$PLIMCHECK
 70
     0
  9
$PEXTMIN
 10
1.0000000000E+20
 20
1.0000000000E+20
 30
1.0000000000E+20
  9
$PEXTMAX
 10
-1.0000000000E+20
 20
-1.0000000000E+20
 30
-1.0000000000E+20
  9
$PLIMMIN
 10
0.0
 20
0.0
  9
$PLIMMAX
 10
420.0
 20
297.0
  9
$UNITMODE
 70
     0
  9
$VISRETAIN
 70
     1
  9
$PLINEGEN
 70
     0
  9
$PSLTSCALE
 70
     1
  0
ENDSEC
  0
SECTION
  2
TABLES
  0
TABLE
  2
VPORT
 70
     1
  0
VPORT
  2
*ACTIVE
 70
     0
 10
0.0
 20
0.0
 11
1.0
 21
1.0
 12
297.0
 22
210.0
 13
0.0
 23
0.0
 14
10.0
 24
10.0
 15
10.0
 25
10.0
 16
0.0
 26
0.0
 36
1.0
 17
0.0
 27
0.0
 37
0.0
 40
420.0
 41
1.4142857143
 42
50.0
 43
0.0
 44
0.0
 50
0.0
 51
0.0
 71
     0
 72
  2000
 73
     1
 74
     3
 75
     0
 76
     0
 77
     0
 78
     0
  0
ENDTAB
  0
TABLE
  2
LTYPE
 70
     6
  0
LTYPE
  2
CONTINUOUS
 70
     0
  3
Solid line
 72
    65
 73
     0
 40
0.0
  0
LTYPE
  2
HIDDEN
 70
     0
  3
Hidden __ __ __ __ __ __ __ __ __ __ __ __ __ __
 72
    65
 73
     2
 40
1.905
 49
1.27
 49
-0.635
  0
LTYPE
  2
PHANTOM
 70
     0
  3
Phantom ______  __  __  ______  __  __  ______
 72
    65
 73
     6
 40
12.7
 49
6.35
 49
-1.27
 49
1.27
 49
-1.27
 49
1.27
 49
-1.27
  0
LTYPE
  2
CENTER
 70
     0
  3
Center ____ _ ____ _ ____ _ ____ _ ____ _ ____
 72
    65
 73
     4
 40
10.16
 49
6.35
 49
-1.27
 49
1.27
 49
-1.27
  0
LTYPE
  2
CENTERX2
 70
     0
  3
Center (2x) ________  __  ________  __  _____
 72
    65
 73
     4
 40
20.32
 49
12.7
 49
-2.54
 49
2.54
 49
-2.54
  0
LTYPE
  2
DOT2
 70
     0
  3
Dot (.5x) ........................................
 72
    65
 73
     2
 40
0.635
 49
0.0
 49
-0.635
  0
ENDTAB
  0
TABLE
  2
LAYER
 70
     1
  0
LAYER
  2
0
 70
     0
 62
     7
  6
CONTINUOUS
  0
ENDTAB
  0
TABLE
  2
STYLE
 70
     1
  0
STYLE
  2
STANDARD
 70
     0
 40
0.0
 41
1.0
 50
0.0
 71
     0
 42
2.5
  3
txt
  4

  0
ENDTAB
  0
TABLE
  2
VIEW
 70
     0
  0
ENDTAB
  0
TABLE
  2
UCS
 70
     0
  0
ENDTAB
  0
TABLE
  2
APPID
 70
     1
  0
APPID
  2
ACAD
 70
     0
  0
ENDTAB
  0
TABLE
  2
DIMSTYLE
 70
     2
  0
DIMSTYLE
  2
ISO-25
 70
     0
  3

  4

  5

  6

  7

 40
1.0
 41
2.5
 42
0.625
 43
3.75
 44
1.25
 45
0.0
 46
0.0
 47
0.0
 48
0.0
140
2.5
141
2.5
142
0.0
143
0.0393700787
144
1.0
145
0.0
146
1.0
147
0.625
 71
     0
 72
     0
 73
     0
 74
     0
 75
     0
 76
     0
 77
     1
 78
     8
170
     0
171
     3
172
     1
173
     0
174
     0
175
     0
176
     0
177
     0
178
     0
  0
DIMSTYLE
  2
SLDDIMSTYLE0
 70
     0
  3

  4

  5

  6
OBLIQUE
  7
OBLIQUE
 40
1.0
 41
4.0
 42
0.0625
 43
0.38
 44
0.0
 45
0.000000001
 46
0.0
 47
0.0
 48
0.0
140
3.5956461589
141
0.09
142
0.0
143
0.0393700787
144
1.0
145
0.0
146
1.0
147
0.8989115397
 71
     0
 72
     0
 73
     1
 74
     1
 75
     0
 76
     0
 77
     0
 78
    12
170
     1
171
     2
172
     0
173
     1
174
     0
175
     0
176
     0
177
     0
178
     0
  0
ENDTAB
  0
ENDSEC
  0
SECTION
  2
BLOCKS
  0
BLOCK
  8
0
  2
$MODEL_SPACE
 70
     0
 10
0.0
 20
0.0
 30
0.0
  3
$MODEL_SPACE
  1

  0
ENDBLK
  5
21
  8
0
  0
BLOCK
 67
     1
  8
0
  2
$PAPER_SPACE
 70
     0
 10
0.0
 20
0.0
 30
0.0
  3
$PAPER_SPACE
  1

  0
ENDBLK
  5
1D
 67
     1
  8
0
  0
BLOCK
  8
0
  2
_OBLIQUE
 70
     0
 10
0.0
 20
0.0
 30
0.0
  3
_OBLIQUE
  1

  0
LINE
  5
39F
  8
0
  6
BYBLOCK
 62
     0
 10
-0.5
 20
-0.5
 30
0.0
 11
0.5
 21
0.5
 31
0.0
  0
ENDBLK
  5
39E
  8
0
  0
BLOCK
  8
0
  2
SW_BROKEN_VIEW_0
 70
     0
 10
0.0
 20
0.0
 30
0.0
  3
SW_BROKEN_VIEW_0
  1

  0
ENDBLK
  5
3A7
  8
0
  0
BLOCK
  8
0
  2
*D3
 70
     1
 10
0.0
 20
0.0
 30
0.0
  3
*D3
  1

  0
INSERT
  5
54E
  8
0
  6
CONTINUOUS
 62
     7
  2
_OBLIQUE
 10
70.7676545856
 20
260.6786605733
 30
445.6993881818
 41
4.0
 42
4.0
 50
90.0
  0
INSERT
  5
54F
  8
0
  6
CONTINUOUS
 62
     7
  2
_OBLIQUE
 10
70.7676545856
 20
170.6786605733
 30
445.6993881818
 41
4.0
 42
4.0
 50
270.0
  0
LINE
  5
550
  8
0
  6
CONTINUOUS
 62
     7
 10
60.0176582955
 20
221.5032045896
 30
0.0
 11
60.0176582955
 21
216.8123515314
 31
0.0
  0
LINE
  5
551
  8
0
  6
CONTINUOUS
 62
     7
 10
60.0176582955
 20
216.8123515314
 30
0.0
 11
60.840667477
 21
216.8123515314
 31
0.0
  0
LINE
  5
552
  8
0
  6
CONTINUOUS
 62
     7
 10
60.0176582955
 20
221.5032045896
 30
0.0
 11
60.840667477
 21
221.5032045896
 31
0.0
  0
LINE
  5
553
  8
0
  6
CONTINUOUS
 62
     7
 10
81.5176508757
 20
221.5032045896
 30
0.0
 11
81.5176508757
 21
216.8123515314
 31
0.0
  0
LINE
  5
554
  8
0
  6
CONTINUOUS
 62
     7
 10
81.5176508757
 20
216.8123515314
 30
0.0
 11
80.6946416943
 21
216.8123515314
 31
0.0
  0
LINE
  5
555
  8
0
  6
CONTINUOUS
 62
     7
 10
81.5176508757
 20
221.5032045896
 30
0.0
 11
80.6946416943
 21
221.5032045896
 31
0.0
  0
LINE
  5
556
  8
0
  6
CONTINUOUS
 62
     7
 10
90.7676545856
 20
260.6786605733
 30
0.0
 11
68.7676545856
 21
260.6786605733
 31
0.0
  0
LINE
  5
557
  8
0
  6
CONTINUOUS
 62
     7
 10
90.7676545856
 20
170.6786605733
 30
0.0
 11
68.7676545856
 21
170.6786605733
 31
0.0
  0
LINE
  5
558
  8
0
  6
CONTINUOUS
 62
     7
 10
70.7676545856
 20
260.6786605733
 30
0.0
 11
70.7676545856
 21
221.9171033889
 31
0.0
  0
LINE
  5
559
  8
0
  6
CONTINUOUS
 62
     7
 10
70.7676545856
 20
170.6786605733
 30
0.0
 11
70.7676545856
 21
210.8798020754
 31
0.0
  0
TEXT
  5
55A
  8
0
  6
CONTINUOUS
 62
     7
 10
68.0262858212
 20
212.1883362215
 30
0.0
 40
3.7041666667
  1
90
 41
0.7
 11
68.0262858212
 21
210.8798020754
 31
0.0
 73
     1
  0
TEXT
  5
55B
  8
0
  6
CONTINUOUS
 62
     7
 10
61.6636766584
 20
217.7069868782
 30
0.0
 40
3.7041666667
  1
3 17/32"
 41
0.7
 11
61.6636766584
 21
216.3984527322
 31
0.0
 73
     1
  0
ENDBLK
  5
54D
  8
0
  0
BLOCK
  8
0
  2
*D4
 70
     1
 10
0.0
 20
0.0
 30
0.0
  3
*D4
  1

  0
INSERT
  5
560
  8
0
  6
CONTINUOUS
 62
     7
  2
_OBLIQUE
 10
90.7676545856
 20
268.4852202998
 30
445.6993881818
 41
4.0
 42
4.0
 50
180.0
  0
INSERT
  5
561
  8
0
  6
CONTINUOUS
 62
     7
  2
_OBLIQUE
 10
195.7676545857
 20
268.4852202998
 30
445.6993881818
 41
4.0
 42
4.0
 50
0.0
  0
LINE
  5
562
  8
0
  6
CONTINUOUS
 62
     7
 10
131.7309777425
 20
279.108622814
 30
0.0
 11
131.7309777425
 21
274.4177697558
 31
0.0
  0
LINE
  5
563
  8
0
  6
CONTINUOUS
 62
     7
 10
131.7309777425
 20
274.4177697558
 30
0.0
 11
132.5539869239
 21
274.4177697558
 31
0.0
  0
LINE
  5
564
  8
0
  6
CONTINUOUS
 62
     7
 10
131.7309777425
 20
279.108622814
 30
0.0
 11
132.5539869239
 21
279.108622814
 31
0.0
  0
LINE
  5
565
  8
0
  6
CONTINUOUS
 62
     7
 10
147.7482327939
 20
279.108622814
 30
0.0
 11
147.7482327939
 21
274.4177697558
 31
0.0
  0
LINE
  5
566
  8
0
  6
CONTINUOUS
 62
     7
 10
147.7482327939
 20
274.4177697558
 30
0.0
 11
146.9252236124
 21
274.4177697558
 31
0.0
  0
LINE
  5
567
  8
0
  6
CONTINUOUS
 62
     7
 10
147.7482327939
 20
279.108622814
 30
0.0
 11
146.9252236124
 21
279.108622814
 31
0.0
  0
LINE
  5
568
  8
0
  6
CONTINUOUS
 62
     7
 10
90.7676545856
 20
260.6786605733
 30
0.0
 11
90.7676545856
 21
270.4852202998
 31
0.0
  0
LINE
  5
569
  8
0
  6
CONTINUOUS
 62
     7
 10
195.7676545857
 20
262.4786605733
 30
0.0
 11
195.7676545857
 21
270.4852202998
 31
0.0
  0
LINE
  5
56A
  8
0
  6
CONTINUOUS
 62
     7
 10
90.7676545856
 20
268.4852202998
 30
0.0
 11
195.7676545857
 21
268.4852202998
 31
0.0
  0
TEXT
  5
56B
  8
0
  6
CONTINUOUS
 62
     7
 10
135.6275521216
 20
269.7937544458
 30
0.0
 40
3.7041666667
  1
105
 41
0.7
 11
135.6275521216
 21
268.4852202998
 31
0.0
 73
     1
  0
TEXT
  5
56C
  8
0
  6
CONTINUOUS
 62
     7
 10
133.3769961054
 20
275.3124051025
 30
0.0
 40
3.7041666667
  1
4 1/8"
 41
0.7
 11
133.3769961054
 21
274.0038709565
 31
0.0
 73
     1
  0
ENDBLK
  5
55F
  8
0
  0
BLOCK
  8
0
  2
*D5
 70
     1
 10
0.0
 20
0.0
 30
0.0
  3
*D5
  1

  0
INSERT
  5
571
  8
0
  6
CONTINUOUS
 62
     7
  2
_OBLIQUE
 10
420.2878422151
 20
269.0142858082
 30
445.6993881818
 41
4.0
 42
4.0
 50
180.0
  0
INSERT
  5
572
  8
0
  6
CONTINUOUS
 62
     7
  2
_OBLIQUE
 10
525.2878422151
 20
269.0142858082
 30
445.6993881818
 41
4.0
 42
4.0
 50
360.0
  0
LINE
  5
573
  8
0
  6
CONTINUOUS
 62
     7
 10
462.368839314
 20
279.6376883224
 30
0.0
 11
462.368839314
 21
274.9468352642
 31
0.0
  0
LINE
  5
574
  8
0
  6
CONTINUOUS
 62
     7
 10
462.368839314
 20
274.9468352642
 30
0.0
 11
463.1918484955
 21
274.9468352642
 31
0.0
  0
LINE
  5
575
  8
0
  6
CONTINUOUS
 62
     7
 10
462.368839314
 20
279.6376883224
 30
0.0
 11
463.1918484955
 21
279.6376883224
 31
0.0
  0
LINE
  5
576
  8
0
  6
CONTINUOUS
 62
     7
 10
478.3860943654
 20
279.6376883224
 30
0.0
 11
478.3860943654
 21
274.9468352642
 31
0.0
  0
LINE
  5
577
  8
0
  6
CONTINUOUS
 62
     7
 10
478.3860943654
 20
274.9468352642
 30
0.0
 11
477.563085184
 21
274.9468352642
 31
0.0
  0
LINE
  5
578
  8
0
  6
CONTINUOUS
 62
     7
 10
478.3860943654
 20
279.6376883224
 30
0.0
 11
477.563085184
 21
279.6376883224
 31
0.0
  0
LINE
  5
579
  8
0
  6
CONTINUOUS
 62
     7
 10
420.2878422151
 20
262.4786605733
 30
0.0
 11
420.2878422151
 21
271.0142858082
 31
0.0
  0
LINE
  5
57A
  8
0
  6
CONTINUOUS
 62
     7
 10
525.2878422151
 20
260.6786605733
 30
0.0
 11
525.2878422151
 21
271.0142858082
 31
0.0
  0
LINE
  5
57B
  8
0
  6
CONTINUOUS
 62
     7
 10
420.2878422151
 20
269.0142858082
 30
0.0
 11
525.2878422151
 21
269.0142858082
 31
0.0
  0
TEXT
  5
57C
  8
0
  6
CONTINUOUS
 62
     7
 10
466.2654136931
 20
270.3228199542
 30
0.0
 40
3.7041666667
  1
105
 41
0.7
 11
466.2654136931
 21
269.0142858082
 31
0.0
 73
     1
  0
TEXT
  5
57D
  8
0
  6
CONTINUOUS
 62
     7
 10
464.0148576769
 20
275.841470611
 30
0.0
 40
3.7041666667
  1
4 1/8"
 41
0.7
 11
464.0148576769
 21
274.5329364649
 31
0.0
 73
     1
  0
ENDBLK
  5
570
  8
0
  0
BLOCK
  8
0
  2
*D6
 70
     1
 10
0.0
 20
0.0
 30
0.0
  3
*D6
  1

  0
INSERT
  5
582
  8
0
  6
CONTINUOUS
 62
     7
  2
_OBLIQUE
 10
544.4694580207
 20
170.6786605733
 30
445.6993881818
 41
4.0
 42
4.0
 50
270.0
  0
INSERT
  5
583
  8
0
  6
CONTINUOUS
 62
     7
  2
_OBLIQUE
 10
544.4694580207
 20
260.6786605733
 30
445.6993881818
 41
4.0
 42
4.0
 50
90.0
  0
LINE
  5
584
  8
0
  6
CONTINUOUS
 62
     7
 10
533.7194617306
 20
221.7482083994
 30
0.0
 11
533.7194617306
 21
217.0573553412
 31
0.0
  0
LINE
  5
585
  8
0
  6
CONTINUOUS
 62
     7
 10
533.7194617306
 20
217.0573553412
 30
0.0
 11
534.542470912
 21
217.0573553412
 31
0.0
  0
LINE
  5
586
  8
0
  6
CONTINUOUS
 62
     7
 10
533.7194617306
 20
221.7482083994
 30
0.0
 11
534.542470912
 21
221.7482083994
 31
0.0
  0
LINE
  5
587
  8
0
  6
CONTINUOUS
 62
     7
 10
555.2194543108
 20
221.7482083994
 30
0.0
 11
555.2194543108
 21
217.0573553412
 31
0.0
  0
LINE
  5
588
  8
0
  6
CONTINUOUS
 62
     7
 10
555.2194543108
 20
217.0573553412
 30
0.0
 11
554.3964451293
 21
217.0573553412
 31
0.0
  0
LINE
  5
589
  8
0
  6
CONTINUOUS
 62
     7
 10
555.2194543108
 20
221.7482083994
 30
0.0
 11
554.3964451293
 21
221.7482083994
 31
0.0
  0
LINE
  5
58A
  8
0
  6
CONTINUOUS
 62
     7
 10
525.2878422151
 20
170.6786605733
 30
0.0
 11
546.4694580207
 21
170.6786605733
 31
0.0
  0
LINE
  5
58B
  8
0
  6
CONTINUOUS
 62
     7
 10
525.2878422151
 20
260.6786605733
 30
0.0
 11
546.4694580207
 21
260.6786605733
 31
0.0
  0
LINE
  5
58C
  8
0
  6
CONTINUOUS
 62
     7
 10
544.4694580207
 20
170.6786605733
 30
0.0
 11
544.4694580207
 21
211.1248058852
 31
0.0
  0
LINE
  5
58D
  8
0
  6
CONTINUOUS
 62
     7
 10
544.4694580207
 20
260.6786605733
 30
0.0
 11
544.4694580207
 21
222.1621071987
 31
0.0
  0
TEXT
  5
58E
  8
0
  6
CONTINUOUS
 62
     7
 10
541.7280892563
 20
212.4333400313
 30
0.0
 40
3.7041666667
  1
90
 41
0.7
 11
541.7280892563
 21
211.1248058852
 31
0.0
 73
     1
  0
TEXT
  5
58F
  8
0
  6
CONTINUOUS
 62
     7
 10
535.3654800935
 20
217.951990688
 30
0.0
 40
3.7041666667
  1
3 17/32"
 41
0.7
 11
535.3654800935
 21
216.643456542
 31
0.0
 73
     1
  0
ENDBLK
  5
581
  8
0
  0
ENDSEC
  0
SECTION
  2
ENTITIES
  0
TEXT
  5
62
  8
0
  6
CONTINUOUS
 62
     7
 10
255.4170091943
 20
108.5834477961
 30
0.0
 40
10.5833333333
  1
S1 Jamb Details
 41
0.6533333333
 11
255.4170091943
 21
104.8447788075
 31
0.0
 73
     1
  0
TEXT
  5
63
  8
0
  6
CONTINUOUS
 62
     7
 10
509.4842806178
 20
108.1024102162
 30
0.0
 40
3.7041666667
  1
S1-001
 41
0.7
 11
509.4842806178
 21
106.7938760702
 31
0.0
 73
     1
  0
LINE
  5
64
  8
0
  6
CONTINUOUS
 62
     7
 10
147.6322141727
 20
462.6212152484
 30
0.0
 11
147.6322141727
 21
569.1812130454
 31
0.0
  0
LINE
  5
65
  8
0
  6
CONTINUOUS
 62
     7
 10
150.9322193702
 20
569.1812130454
 30
0.0
 11
150.9322193702
 21
462.6212152484
 31
0.0
  0
ARC
  5
66
  8
0
  6
CONTINUOUS
 62
     7
 10
134.9008277502
 20
587.1181786716
 30
0.0
 40
1.397000000000016
 50
99.731630342
 51
108.9406331521
  0
ARC
  5
67
  8
0
  6
CONTINUOUS
 62
     7
 10
134.9008277502
 20
587.1181786716
 30
0.0
 40
1.397000000000021
 50
71.0593668479
 51
80.268369658
  0
ARC
  5
68
  8
0
  6
CONTINUOUS
 62
     7
 10
138.7008277502
 20
587.1181786716
 30
0.0
 40
1.397000000000016
 50
99.731630342
 51
108.9406331522
  0
ARC
  5
69
  8
0
  6
CONTINUOUS
 62
     7
 10
138.7008277502
 20
587.1181786716
 30
0.0
 40
1.397000000000016
 50
71.0593668478
 51
80.268369658
  0
LINE
  5
6A
  8
0
  6
CONTINUOUS
 62
     7
 10
144.8109117587
 20
462.5240835193
 30
0.0
 11
144.8065248569
 21
462.0212110523
 31
0.0
  0
ARC
  5
6B
  8
0
  6
CONTINUOUS
 62
     7
 10
144.9047956415
 20
462.5320565648
 30
0.0
 40
0.0878064822925009
 50
106.5614012091
 51
186.523502528
  0
LINE
  5
6C
  8
0
  6
CONTINUOUS
 62
     7
 10
144.8065248569
 20
569.7812112811
 30
0.0
 11
144.8109117587
 21
569.2783388141
 31
0.0
  0
ARC
  5
6D
  8
0
  6
CONTINUOUS
 62
     7
 10
144.9048000393
 20
569.2703710237
 30
0.0
 40
0.0878099163975808
 50
173.4821622169
 51
253.4362713975
  0
LINE
  5
6E
  8
0
  6
CONTINUOUS
 62
     7
 10
368.2008293708
 20
460.1995381359
 30
0.0
 11
133.6008277972
 21
460.1995381359
 31
0.0
  0
LINE
  5
6F
  8
0
  6
CONTINUOUS
 62
     7
 10
144.7822180827
 20
462.6212152484
 30
0.0
 11
144.7822180827
 21
569.1812130454
 31
0.0
  0
LINE
  5
70
  8
0
  6
CONTINUOUS
 62
     7
 10
145.1822188934
 20
569.1812130454
 30
0.0
 11
145.1822188934
 21
462.6212152484
 31
0.0
  0
LINE
  5
71
  8
0
  6
CONTINUOUS
 62
     7
 10
145.1822188934
 20
462.6212152484
 30
0.0
 11
144.7822180827
 21
462.6212152484
 31
0.0
  0
LINE
  5
72
  8
0
  6
CONTINUOUS
 62
     7
 10
144.7822180827
 20
569.1812130454
 30
0.0
 11
145.1822188934
 21
569.1812130454
 31
0.0
  0
LINE
  5
73
  8
0
  6
CONTINUOUS
 62
     7
 10
147.2822156986
 20
462.6212152484
 30
0.0
 11
147.2822156986
 21
569.1812130454
 31
0.0
  0
LINE
  5
74
  8
0
  6
CONTINUOUS
 62
     7
 10
147.2822156986
 20
462.6212152484
 30
0.0
 11
145.1822188934
 21
462.6212152484
 31
0.0
  0
LINE
  5
75
  8
0
  6
CONTINUOUS
 62
     7
 10
147.2822156986
 20
569.1812130454
 30
0.0
 11
145.1822188934
 21
569.1812130454
 31
0.0
  0
LINE
  5
76
  8
0
  6
CONTINUOUS
 62
     7
 10
147.6322141727
 20
462.6212152484
 30
0.0
 11
147.2822156986
 21
462.6212152484
 31
0.0
  0
LINE
  5
77
  8
0
  6
CONTINUOUS
 62
     7
 10
147.6322141727
 20
569.1812130454
 30
0.0
 11
147.2822156986
 21
569.1812130454
 31
0.0
  0
LINE
  5
78
  8
0
  6
CONTINUOUS
 62
     7
 10
151.2822178443
 20
462.6212152484
 30
0.0
 11
151.2822178443
 21
569.1812130454
 31
0.0
  0
LINE
  5
79
  8
0
  6
CONTINUOUS
 62
     7
 10
154.7739890655
 20
462.6212152484
 30
0.0
 11
154.7739890655
 21
569.1812130454
 31
0.0
  0
LINE
  5
7A
  8
0
  6
CONTINUOUS
 62
     7
 10
154.7739890655
 20
462.6212152484
 30
0.0
 11
151.2822178443
 21
462.6212152484
 31
0.0
  0
LINE
  5
7B
  8
0
  6
CONTINUOUS
 62
     7
 10
154.7739890655
 20
569.1812130454
 30
0.0
 11
151.2822178443
 21
569.1812130454
 31
0.0
  0
LINE
  5
7C
  8
0
  6
CONTINUOUS
 62
     7
 10
151.2822178443
 20
462.6212152484
 30
0.0
 11
150.9322193702
 21
462.6212152484
 31
0.0
  0
LINE
  5
7D
  8
0
  6
CONTINUOUS
 62
     7
 10
151.2822178443
 20
569.1812130454
 30
0.0
 11
150.9322193702
 21
569.1812130454
 31
0.0
  0
LINE
  5
7E
  8
0
  6
CONTINUOUS
 62
     7
 10
155.1016536792
 20
569.1812130454
 30
0.0
 11
155.1016536792
 21
462.6212152484
 31
0.0
  0
LINE
  5
7F
  8
0
  6
CONTINUOUS
 62
     7
 10
155.1016536792
 20
462.6212152484
 30
0.0
 11
154.7739890655
 21
462.6212152484
 31
0.0
  0
LINE
  5
80
  8
0
  6
CONTINUOUS
 62
     7
 10
154.7739890655
 20
569.1812130454
 30
0.0
 11
155.1016536792
 21
569.1812130454
 31
0.0
  0
LINE
  5
81
  8
0
  6
CONTINUOUS
 62
     7
 10
155.5098799308
 20
462.6212152484
 30
0.0
 11
155.5098799308
 21
569.1812130454
 31
0.0
  0
LINE
  5
82
  8
0
  6
CONTINUOUS
 62
     7
 10
155.5098799308
 20
462.6212152484
 30
0.0
 11
155.1016536792
 21
462.6212152484
 31
0.0
  0
LINE
  5
83
  8
0
  6
CONTINUOUS
 62
     7
 10
155.5098799308
 20
569.1812130454
 30
0.0
 11
155.1016536792
 21
569.1812130454
 31
0.0
  0
LINE
  5
84
  8
0
  6
CONTINUOUS
 62
     7
 10
155.5822161277
 20
569.1812130454
 30
0.0
 11
155.5822161277
 21
462.6212152484
 31
0.0
  0
LINE
  5
85
  8
0
  6
CONTINUOUS
 62
     7
 10
155.5822161277
 20
462.6212152484
 30
0.0
 11
155.5098799308
 21
462.6212152484
 31
0.0
  0
LINE
  5
86
  8
0
  6
CONTINUOUS
 62
     7
 10
155.5098799308
 20
569.1812130454
 30
0.0
 11
155.5822161277
 21
569.1812130454
 31
0.0
  0
LINE
  5
87
  8
0
  6
CONTINUOUS
 62
     7
 10
389.2008331855
 20
452.0795377735
 30
0.0
 11
389.2008331855
 21
587.6395392064
 31
0.0
  0
LINE
  5
88
  8
0
  6
CONTINUOUS
 62
     7
 10
388.8008383354
 20
452.0795377735
 30
0.0
 11
388.8008383354
 21
587.6395392064
 31
0.0
  0
LINE
  5
89
  8
0
  6
CONTINUOUS
 62
     7
 10
389.2008331855
 20
587.6395392064
 30
0.0
 11
388.8008383354
 21
587.6395392064
 31
0.0
  0
LINE
  5
8A
  8
0
  6
CONTINUOUS
 62
     7
 10
389.2008331855
 20
452.0795377735
 30
0.0
 11
388.8008383354
 21
452.0795377735
 31
0.0
  0
LINE
  5
8B
  8
0
  6
CONTINUOUS
 62
     7
 10
368.3008221229
 20
452.0795377735
 30
0.0
 11
368.3008221229
 21
587.6395392064
 31
0.0
  0
LINE
  5
8C
  8
0
  6
CONTINUOUS
 62
     7
 10
388.8008383354
 20
587.6395392064
 30
0.0
 11
368.3008221229
 21
587.6395392064
 31
0.0
  0
LINE
  5
8D
  8
0
  6
CONTINUOUS
 62
     7
 10
388.8008383354
 20
452.0795377735
 30
0.0
 11
368.3008221229
 21
452.0795377735
 31
0.0
  0
LINE
  5
8E
  8
0
  6
CONTINUOUS
 62
     7
 10
368.2008293708
 20
460.0395354274
 30
0.0
 11
368.2008293708
 21
571.0395398382
 31
0.0
  0
LINE
  5
8F
  8
0
  6
CONTINUOUS
 62
     7
 10
368.3008221229
 20
587.6395392064
 30
0.0
 11
368.2008293708
 21
587.6395392064
 31
0.0
  0
LINE
  5
90
  8
0
  6
CONTINUOUS
 62
     7
 10
368.3008221229
 20
452.0795377735
 30
0.0
 11
368.2008293708
 21
452.0795377735
 31
0.0
  0
LINE
  5
91
  8
0
  6
CONTINUOUS
 62
     7
 10
112.6008269628
 20
587.6395392064
 30
0.0
 11
112.6008269628
 21
452.0795377735
 31
0.0
  0
LINE
  5
92
  8
0
  6
CONTINUOUS
 62
     7
 10
112.6008269628
 20
587.6395392064
 30
0.0
 11
113.0008277734
 21
587.6395392064
 31
0.0
  0
LINE
  5
93
  8
0
  6
CONTINUOUS
 62
     7
 10
113.0008277734
 20
587.6395392064
 30
0.0
 11
113.0008277734
 21
452.0795377735
 31
0.0
  0
LINE
  5
94
  8
0
  6
CONTINUOUS
 62
     7
 10
112.6008269628
 20
452.0795377735
 30
0.0
 11
113.0008277734
 21
452.0795377735
 31
0.0
  0
LINE
  5
95
  8
0
  6
CONTINUOUS
 62
     7
 10
133.5008290847
 20
587.6395392064
 30
0.0
 11
133.5008290847
 21
452.0795377735
 31
0.0
  0
LINE
  5
96
  8
0
  6
CONTINUOUS
 62
     7
 10
133.5008290847
 20
587.6395392064
 30
0.0
 11
133.6008277972
 21
587.6395392064
 31
0.0
  0
LINE
  5
97
  8
0
  6
CONTINUOUS
 62
     7
 10
133.6008277972
 20
571.0395398382
 30
0.0
 11
133.6008277972
 21
460.0395354274
 31
0.0
  0
LINE
  5
98
  8
0
  6
CONTINUOUS
 62
     7
 10
133.5008290847
 20
452.0795377735
 30
0.0
 11
133.6008277972
 21
452.0795377735
 31
0.0
  0
LINE
  5
99
  8
0
  6
CONTINUOUS
 62
     7
 10
113.0008277734
 20
587.6395392064
 30
0.0
 11
133.5008290847
 21
587.6395392064
 31
0.0
  0
LINE
  5
9A
  8
0
  6
CONTINUOUS
 62
     7
 10
113.0008277734
 20
452.0795377735
 30
0.0
 11
133.5008290847
 21
452.0795377735
 31
0.0
  0
LINE
  5
9B
  8
0
  6
CONTINUOUS
 62
     7
 10
368.2008293708
 20
570.9688666109
 30
0.0
 11
133.8008252223
 21
570.9688666109
 31
0.0
  0
LINE
  5
9C
  8
0
  6
CONTINUOUS
 62
     7
 10
133.8008252223
 20
571.0395398382
 30
0.0
 11
133.8008252223
 21
570.9688666109
 31
0.0
  0
ARC
  5
9D
  8
0
  6
CONTINUOUS
 62
     7
 10
134.912586114
 20
587.0820562802
 30
0.0
 40
1.417036713943593
 50
92.2905020676
 51
98.7302048951
  0
ARC
  5
9E
  8
0
  6
CONTINUOUS
 62
     7
 10
134.8037882752
 20
587.3375510413
 30
0.0
 40
1.161581678206541
 50
80.3437434887
 51
87.4260945372
  0
ARC
  5
9F
  8
0
  6
CONTINUOUS
 62
     7
 10
134.7787839038
 20
587.8873741419
 30
0.0
 40
0.6345982238508313
 50
59.3229541179
 51
69.730841412
  0
ARC
  5
A0
  8
0
  6
CONTINUOUS
 62
     7
 10
134.9518391839
 20
588.072450545
 30
0.0
 40
0.4436847711265806
 50
54.3897193077
 51
67.6059916449
  0
ARC
  5
A1
  8
0
  6
CONTINUOUS
 62
     7
 10
135.0932045592
 20
588.4805734651
 30
0.0
 40
0.0277465661366434
 50
4.3442161521
 51
38.8033409502
  0
ARC
  5
A2
  8
0
  6
CONTINUOUS
 62
     7
 10
134.8890658088
 20
587.0820562802
 30
0.0
 40
1.417036713943595
 50
81.2697951049
 51
87.7094979324
  0
ARC
  5
A3
  8
0
  6
CONTINUOUS
 62
     7
 10
134.9966777362
 20
587.3546637954
 30
0.0
 40
1.144433007466291
 50
92.5530677426
 51
94.8042759522
  0
ARC
  5
A4
  8
0
  6
CONTINUOUS
 62
     7
 10
134.7115631846
 20
588.2218239519
 30
0.0
 40
0.2772428208638951
 50
95.1193905126
 51
109.8007146825
  0
ARC
  5
A5
  8
0
  6
CONTINUOUS
 62
     7
 10
134.8537046343
 20
587.568717372
 30
0.0
 40
0.943950222791345
 50
104.4818881553
 51
113.6837854677
  0
ARC
  5
A6
  8
0
  6
CONTINUOUS
 62
     7
 10
134.9667800689
 20
587.3922948359
 30
0.0
 40
1.12313762797749
 50
103.8719036113
 51
112.0659929205
  0
LINE
  5
A7
  8
0
  6
CONTINUOUS
 62
     7
 10
135.1133910259
 20
588.4395393375
 30
0.0
 11
135.1208714088
 21
588.4826752189
 31
0.0
  0
LINE
  5
A8
  8
0
  6
CONTINUOUS
 62
     7
 10
134.6206275066
 20
588.460758591
 30
0.0
 11
134.6176472743
 21
588.4826752189
 31
0.0
  0
LINE
  5
A9
  8
0
  6
CONTINUOUS
 62
     7
 10
135.1043907245
 20
588.4395393375
 30
0.0
 11
135.1148274978
 21
588.4979608301
 31
0.0
  0
LINE
  5
AA
  8
0
  6
CONTINUOUS
 62
     7
 10
134.6898940643
 20
588.4807738307
 30
0.0
 11
134.6868244251
 21
588.4979608301
 31
0.0
  0
LINE
  5
AB
  8
0
  6
CONTINUOUS
 62
     7
 10
135.106065615
 20
588.4489211086
 30
0.0
 11
135.1041463455
 21
588.4826752189
 31
0.0
  0
LINE
  5
AC
  8
0
  6
CONTINUOUS
 62
     7
 10
134.9454191764
 20
588.4904625657
 30
0.0
 11
134.9456993182
 21
588.4979608301
 31
0.0
  0
ARC
  5
AD
  8
0
  6
CONTINUOUS
 62
     7
 10
138.7125908347
 20
587.0820562802
 30
0.0
 40
1.417036713943593
 50
92.2905020676
 51
98.7302048951
  0
ARC
  5
AE
  8
0
  6
CONTINUOUS
 62
     7
 10
138.6037757532
 20
587.3374660791
 30
0.0
 40
1.161667329078771
 50
80.3438978096
 51
87.4254331352
  0
ARC
  5
AF
  8
0
  6
CONTINUOUS
 62
     7
 10
138.5788270737
 20
587.8874283882
 30
0.0
 40
0.6345319521969167
 50
59.3234410027
 51
69.7329062151
  0
ARC
  5
B0
  8
0
  6
CONTINUOUS
 62
     7
 10
138.7518379442
 20
588.072450545
 30
0.0
 40
0.4436847711265806
 50
54.3897193077
 51
67.6059916449
  0
ARC
  5
B1
  8
0
  6
CONTINUOUS
 62
     7
 10
138.8933065607
 20
588.4806142866
 30
0.0
 40
0.0276405488714866
 50
4.27605159
 51
38.8715055121
  0
ARC
  5
B2
  8
0
  6
CONTINUOUS
 62
     7
 10
138.6890755222
 20
587.0821698183
 30
0.0
 40
1.416922828788684
 50
81.2695360366
 51
87.7097570007
  0
ARC
  5
B3
  8
0
  6
CONTINUOUS
 62
     7
 10
138.7966764964
 20
587.3546637954
 30
0.0
 40
1.144433007464924
 50
92.5530677426
 51
94.8042759522
  0
ARC
  5
B4
  8
0
  6
CONTINUOUS
 62
     7
 10
138.5115820012
 20
588.2217235309
 30
0.0
 40
0.2773440991290821
 50
95.1204397568
 51
109.7975854945
  0
ARC
  5
B5
  8
0
  6
CONTINUOUS
 62
     7
 10
138.6537033945
 20
587.568717372
 30
0.0
 40
0.9439502227921766
 50
104.4818881553
 51
113.6837854677
  0
ARC
  5
B6
  8
0
  6
CONTINUOUS
 62
     7
 10
138.7666637452
 20
587.392617279
 30
0.0
 40
1.122795569276312
 50
103.8698518309
 51
112.0667317943
  0
LINE
  5
B7
  8
0
  6
CONTINUOUS
 62
     7
 10
138.9133897861
 20
588.4395393375
 30
0.0
 11
138.920870169
 21
588.4826752189
 31
0.0
  0
LINE
  5
B8
  8
0
  6
CONTINUOUS
 62
     7
 10
138.4206262668
 20
588.460758591
 30
0.0
 11
138.4176460346
 21
588.4826752189
 31
0.0
  0
LINE
  5
B9
  8
0
  6
CONTINUOUS
 62
     7
 10
138.9043894847
 20
588.4395393375
 30
0.0
 11
138.914826258
 21
588.4979608301
 31
0.0
  0
LINE
  5
BA
  8
0
  6
CONTINUOUS
 62
     7
 10
138.489898785
 20
588.4807738307
 30
0.0
 11
138.4868291457
 21
588.4979608301
 31
0.0
  0
LINE
  5
BB
  8
0
  6
CONTINUOUS
 62
     7
 10
138.9060703357
 20
588.4489211086
 30
0.0
 11
138.9041451057
 21
588.4826752189
 31
0.0
  0
LINE
  5
BC
  8
0
  6
CONTINUOUS
 62
     7
 10
138.7454179366
 20
588.4904625657
 30
0.0
 11
138.7456980785
 21
588.4979608301
 31
0.0
  0
LINE
  5
BD
  8
0
  6
CONTINUOUS
 62
     7
 10
368.600824221
 20
451.3395341876
 30
0.0
 11
388.8008383354
 21
451.3395341876
 31
0.0
  0
LINE
  5
BE
  8
0
  6
CONTINUOUS
 62
     7
 10
368.600824221
 20
452.019539738
 30
0.0
 11
368.600824221
 21
451.3395341876
 31
0.0
  0
LINE
  5
BF
  8
0
  6
CONTINUOUS
 62
     7
 10
388.8008383354
 20
452.019539738
 30
0.0
 11
368.600824221
 21
452.019539738
 31
0.0
  0
LINE
  5
C0
  8
0
  6
CONTINUOUS
 62
     7
 10
388.8008383354
 20
451.3395341876
 30
0.0
 11
388.8008383354
 21
452.019539738
 31
0.0
  0
LINE
  5
C1
  8
0
  6
CONTINUOUS
 62
     7
 10
370.2808168968
 20
451.2795361522
 30
0.0
 11
368.600824221
 21
451.2795361522
 31
0.0
  0
LINE
  5
C2
  8
0
  6
CONTINUOUS
 62
     7
 10
368.600824221
 20
451.3395341876
 30
0.0
 11
368.600824221
 21
451.2795361522
 31
0.0
  0
LINE
  5
C3
  8
0
  6
CONTINUOUS
 62
     7
 10
388.8008383354
 20
451.3395341876
 30
0.0
 11
388.8008383354
 21
451.2795361522
 31
0.0
  0
LINE
  5
C4
  8
0
  6
CONTINUOUS
 62
     7
 10
388.8008383354
 20
451.2795361522
 30
0.0
 11
388.3608368476
 21
451.2795361522
 31
0.0
  0
LINE
  5
C5
  8
0
  6
CONTINUOUS
 62
     7
 10
388.3608368476
 20
451.2795361522
 30
0.0
 11
370.2808168968
 21
451.2795361522
 31
0.0
  0
LINE
  5
C6
  8
0
  6
CONTINUOUS
 62
     7
 10
368.4008387168
 20
451.3395341876
 30
0.0
 11
368.600824221
 21
451.3395341876
 31
0.0
  0
LINE
  5
C7
  8
0
  6
CONTINUOUS
 62
     7
 10
368.600824221
 20
451.2795361522
 30
0.0
 11
368.4608248313
 21
451.2795361522
 31
0.0
  0
ARC
  5
C8
  8
0
  6
CONTINUOUS
 62
     7
 10
368.4608277502
 20
451.3395386716
 30
0.0
 40
0.0600000000000023
 50
180.0
 51
270.0
  0
LINE
  5
C9
  8
0
  6
CONTINUOUS
 62
     7
 10
388.8008383354
 20
451.3395341876
 30
0.0
 11
389.2008331855
 21
451.3395341876
 31
0.0
  0
ARC
  5
CA
  8
0
  6
CONTINUOUS
 62
     7
 10
389.1408277502
 20
451.3395386716
 30
0.0
 40
0.0600000000000023
 50
270.0
 51
0.0
  0
LINE
  5
CB
  8
0
  6
CONTINUOUS
 62
     7
 10
389.1408232291
 20
451.2795361522
 30
0.0
 11
388.8008383354
 21
451.2795361522
 31
0.0
  0
LINE
  5
CC
  8
0
  6
CONTINUOUS
 62
     7
 10
368.4008387168
 20
451.3395341876
 30
0.0
 11
368.4008387168
 21
452.019539738
 31
0.0
  0
LINE
  5
CD
  8
0
  6
CONTINUOUS
 62
     7
 10
368.600824221
 20
452.019539738
 30
0.0
 11
368.4008387168
 21
452.019539738
 31
0.0
  0
LINE
  5
CE
  8
0
  6
CONTINUOUS
 62
     7
 10
389.2008331855
 20
452.019539738
 30
0.0
 11
388.8008383354
 21
452.019539738
 31
0.0
  0
LINE
  5
CF
  8
0
  6
CONTINUOUS
 62
     7
 10
389.2008331855
 20
452.019539738
 30
0.0
 11
389.2008331855
 21
451.3395341876
 31
0.0
  0
ARC
  5
D0
  8
0
  6
CONTINUOUS
 62
     7
 10
368.4608277502
 20
452.0195386716
 30
0.0
 40
0.0600000000000023
 50
90.0
 51
180.0
  0
LINE
  5
D1
  8
0
  6
CONTINUOUS
 62
     7
 10
368.600824221
 20
452.019539738
 30
0.0
 11
368.600824221
 21
452.0795377735
 31
0.0
  0
LINE
  5
D2
  8
0
  6
CONTINUOUS
 62
     7
 10
388.8008383354
 20
452.019539738
 30
0.0
 11
388.8008383354
 21
452.0795377735
 31
0.0
  0
ARC
  5
D3
  8
0
  6
CONTINUOUS
 62
     7
 10
389.1408277502
 20
452.0195386716
 30
0.0
 40
0.0600000000000023
 50
0.0
 51
90.0
  0
LINE
  5
D4
  8
0
  6
CONTINUOUS
 62
     7
 10
368.4008387168
 20
452.019539738
 30
0.0
 11
368.4008387168
 21
452.0795377735
 31
0.0
  0
ARC
  5
D5
  8
0
  6
CONTINUOUS
 62
     7
 10
368.3483093762
 20
451.6440416694
 30
0.0
 40
0.0535973080835121
 50
11.4569479025
 51
98.0230073603
  0
ARC
  5
D6
  8
0
  6
CONTINUOUS
 62
     7
 10
368.3408277502
 20
451.6195386716
 30
0.0
 40
0.0600000000000591
 50
0.0
 51
90.0
  0
LINE
  5
D7
  8
0
  6
CONTINUOUS
 62
     7
 10
368.3408287605
 20
451.6971143726
 30
0.0
 11
368.3408287605
 21
451.6795429233
 31
0.0
  0
LINE
  5
D8
  8
0
  6
CONTINUOUS
 62
     7
 10
368.3408287605
 20
451.6795429233
 30
0.0
 11
368.2008293708
 21
451.6795429233
 31
0.0
  0
LINE
  5
D9
  8
0
  6
CONTINUOUS
 62
     7
 10
133.2008269866
 20
452.0795377735
 30
0.0
 11
133.2008269866
 21
452.019539738
 31
0.0
  0
LINE
  5
DA
  8
0
  6
CONTINUOUS
 62
     7
 10
133.2008269866
 20
452.019539738
 30
0.0
 11
113.0008277734
 21
452.019539738
 31
0.0
  0
LINE
  5
DB
  8
0
  6
CONTINUOUS
 62
     7
 10
113.0008277734
 20
452.0795377735
 30
0.0
 11
113.0008277734
 21
452.019539738
 31
0.0
  0
LINE
  5
DC
  8
0
  6
CONTINUOUS
 62
     7
 10
113.0008277734
 20
452.019539738
 30
0.0
 11
112.6008269628
 21
452.019539738
 31
0.0
  0
ARC
  5
DD
  8
0
  6
CONTINUOUS
 62
     7
 10
112.6608277502
 20
452.0195386716
 30
0.0
 40
0.0600000000000591
 50
90.0
 51
180.0
  0
LINE
  5
DE
  8
0
  6
CONTINUOUS
 62
     7
 10
112.6008269628
 20
451.3395341876
 30
0.0
 11
113.0008277734
 21
451.3395341876
 31
0.0
  0
LINE
  5
DF
  8
0
  6
CONTINUOUS
 62
     7
 10
112.6008269628
 20
451.3395341876
 30
0.0
 11
112.6008269628
 21
452.019539738
 31
0.0
  0
LINE
  5
E0
  8
0
  6
CONTINUOUS
 62
     7
 10
113.0008277734
 20
452.019539738
 30
0.0
 11
113.0008277734
 21
451.3395341876
 31
0.0
  0
LINE
  5
E1
  8
0
  6
CONTINUOUS
 62
     7
 10
113.0008277734
 20
451.3395341876
 30
0.0
 11
133.2008269866
 21
451.3395341876
 31
0.0
  0
LINE
  5
E2
  8
0
  6
CONTINUOUS
 62
     7
 10
133.2008269866
 20
451.3395341876
 30
0.0
 11
133.2008269866
 21
452.019539738
 31
0.0
  0
ARC
  5
E3
  8
0
  6
CONTINUOUS
 62
     7
 10
133.3408277502
 20
452.0195386716
 30
0.0
 40
0.0600000000000023
 50
0.0
 51
90.0
  0
LINE
  5
E4
  8
0
  6
CONTINUOUS
 62
     7
 10
133.4008303722
 20
452.019539738
 30
0.0
 11
133.2008269866
 21
452.019539738
 31
0.0
  0
LINE
  5
E5
  8
0
  6
CONTINUOUS
 62
     7
 10
133.2008269866
 20
451.3395341876
 30
0.0
 11
133.4008303722
 21
451.3395341876
 31
0.0
  0
LINE
  5
E6
  8
0
  6
CONTINUOUS
 62
     7
 10
133.4008303722
 20
452.019539738
 30
0.0
 11
133.4008303722
 21
451.3395341876
 31
0.0
  0
ARC
  5
E7
  8
0
  6
CONTINUOUS
 62
     7
 10
133.3408277502
 20
451.3395386716
 30
0.0
 40
0.0600000000000023
 50
270.0
 51
0.0
  0
LINE
  5
E8
  8
0
  6
CONTINUOUS
 62
     7
 10
133.3408263763
 20
451.2795361522
 30
0.0
 11
133.2008269866
 21
451.2795361522
 31
0.0
  0
LINE
  5
E9
  8
0
  6
CONTINUOUS
 62
     7
 10
133.2008269866
 20
451.3395341876
 30
0.0
 11
133.2008269866
 21
451.2795361522
 31
0.0
  0
LINE
  5
EA
  8
0
  6
CONTINUOUS
 62
     7
 10
113.4408262809
 20
451.2795361522
 30
0.0
 11
113.0008277734
 21
451.2795361522
 31
0.0
  0
LINE
  5
EB
  8
0
  6
CONTINUOUS
 62
     7
 10
113.0008277734
 20
451.3395341876
 30
0.0
 11
113.0008277734
 21
451.2795361522
 31
0.0
  0
LINE
  5
EC
  8
0
  6
CONTINUOUS
 62
     7
 10
133.2008269866
 20
451.2795361522
 30
0.0
 11
126.0008302768
 21
451.2795361522
 31
0.0
  0
LINE
  5
ED
  8
0
  6
CONTINUOUS
 62
     7
 10
126.0008302768
 20
451.2795361522
 30
0.0
 11
113.4408262809
 21
451.2795361522
 31
0.0
  0
LINE
  5
EE
  8
0
  6
CONTINUOUS
 62
     7
 10
113.0008277734
 20
451.2795361522
 30
0.0
 11
112.6608279784
 21
451.2795361522
 31
0.0
  0
ARC
  5
EF
  8
0
  6
CONTINUOUS
 62
     7
 10
112.6608277502
 20
451.3395386716
 30
0.0
 40
0.0600000000000023
 50
180.0
 51
270.0
  0
LINE
  5
F0
  8
0
  6
CONTINUOUS
 62
     7
 10
133.4608284076
 20
451.8619688991
 30
0.0
 11
133.4608284076
 21
451.9043954853
 31
0.0
  0
ARC
  5
F1
  8
0
  6
CONTINUOUS
 62
     7
 10
133.4454444573
 20
451.7379381284
 30
0.0
 40
0.1249811905859719
 50
82.9295237826
 51
110.9140084537
  0
ARC
  5
F2
  8
0
  6
CONTINUOUS
 62
     7
 10
133.4563267294
 20
451.8487662213
 30
0.0
 40
0.0558111109944842
 50
85.3735438361
 51
173.9121060396
  0
LINE
  5
F3
  8
0
  6
CONTINUOUS
 62
     7
 10
133.4008303722
 20
452.019539738
 30
0.0
 11
133.4608284076
 21
452.019539738
 31
0.0
  0
LINE
  5
F4
  8
0
  6
CONTINUOUS
 62
     7
 10
133.4608284076
 20
452.019539738
 30
0.0
 11
133.4608284076
 21
451.9043954853
 31
0.0
  0
ARC
  5
F5
  8
0
  6
CONTINUOUS
 62
     7
 10
133.4533323452
 20
451.6440782714
 30
0.0
 40
0.0535632241644438
 50
81.9551667583
 51
168.5756096477
  0
LINE
  5
F6
  8
0
  6
CONTINUOUS
 62
     7
 10
133.4608284076
 20
451.8619688991
 30
0.0
 11
133.4608284076
 21
451.6971143726
 31
0.0
  0
LINE
  5
F7
  8
0
  6
CONTINUOUS
 62
     7
 10
133.4608284076
 20
451.6795429233
 30
0.0
 11
133.4608284076
 21
451.6971143726
 31
0.0
  0
ARC
  5
F8
  8
0
  6
CONTINUOUS
 62
     7
 10
133.4608277502
 20
451.6195386716
 30
0.0
 40
0.0600000000000023
 50
90.0
 51
180.0
  0
LINE
  5
F9
  8
0
  6
CONTINUOUS
 62
     7
 10
133.6008277972
 20
451.6795429233
 30
0.0
 11
133.4608284076
 21
451.6795429233
 31
0.0
  0
ARC
  5
FA
  8
0
  6
CONTINUOUS
 62
     7
 10
147.9786606872
 20
455.0870013245
 30
0.0
 40
7.049154206228959
 50
100.9592600536
 51
102.0350659362
  0
ARC
  5
FB
  8
0
  6
CONTINUOUS
 62
     7
 10
146.9424437985
 20
460.6271286643
 30
0.0
 40
1.413524606660128
 50
99.5138851676
 51
102.4153956884
  0
LINE
  5
FC
  8
0
  6
CONTINUOUS
 62
     7
 10
146.7088070949
 20
461.8543538097
 30
0.0
 11
146.7088070949
 21
462.0212110523
 31
0.0
  0
LINE
  5
FD
  8
0
  6
CONTINUOUS
 62
     7
 10
146.7088070949
 20
461.8543538097
 30
0.0
 11
146.5088394721
 21
461.8543538097
 31
0.0
  0
LINE
  5
FE
  8
0
  6
CONTINUOUS
 62
     7
 10
146.5088394721
 20
461.9812163356
 30
0.0
 11
146.5088394721
 21
461.8543538097
 31
0.0
  0
LINE
  5
FF
  8
0
  6
CONTINUOUS
 62
     7
 10
145.2173737129
 20
462.5220808032
 30
0.0
 11
154.7538784583
 21
462.5220808032
 31
0.0
  0
LINE
  5
100
  8
0
  6
CONTINUOUS
 62
     7
 10
154.7538784583
 20
462.5220808032
 30
0.0
 11
154.7538784583
 21
462.0212110523
 31
0.0
  0
LINE
  5
101
  8
0
  6
CONTINUOUS
 62
     7
 10
146.7088070949
 20
462.0212110523
 30
0.0
 11
154.7538784583
 21
462.0212110523
 31
0.0
  0
LINE
  5
102
  8
0
  6
CONTINUOUS
 62
     7
 10
146.6337529262
 20
462.0212110523
 30
0.0
 11
146.7088070949
 21
462.0212110523
 31
0.0
  0
LINE
  5
103
  8
0
  6
CONTINUOUS
 62
     7
 10
145.2173737129
 20
462.5220808032
 30
0.0
 11
145.2173737129
 21
462.0212110523
 31
0.0
  0
LINE
  5
104
  8
0
  6
CONTINUOUS
 62
     7
 10
145.2173737129
 20
462.0212110523
 30
0.0
 11
146.6337529262
 21
462.0212110523
 31
0.0
  0
LINE
  5
105
  8
0
  6
CONTINUOUS
 62
     7
 10
154.7538784583
 20
461.8543538097
 30
0.0
 11
154.7538784583
 21
462.0212110523
 31
0.0
  0
LINE
  5
106
  8
0
  6
CONTINUOUS
 62
     7
 10
146.7088070949
 20
461.8543538097
 30
0.0
 11
154.7538784583
 21
461.8543538097
 31
0.0
  0
POLYLINE
  5
107
  8
0
  6
CONTINUOUS
 62
     7
 66
     1
 10
0.0
 20
0.0
 30
0.0
  0
VERTEX
  5
5A1
  8
0
  6
CONTINUOUS
 62
     7
 10
146.6337529262
 20
462.0212110523
 30
0.0
  0
VERTEX
  5
5A2
  8
0
  6
CONTINUOUS
 62
     7
 10
146.6355172237
 20
462.020257378
 30
0.0
  0
VERTEX
  5
5A3
  8
0
  6
CONTINUOUS
 62
     7
 10
146.6363755306
 20
462.0189937595
 30
0.0
  0
VERTEX
  5
5A4
  8
0
  6
CONTINUOUS
 62
     7
 10
146.63713847
 20
462.0172175411
 30
0.0
  0
VERTEX
  5
5A5
  8
0
  6
CONTINUOUS
 62
     7
 10
146.6377583583
 20
462.015047932
 30
0.0
  0
VERTEX
  5
5A6
  8
0
  6
CONTINUOUS
 62
     7
 10
146.6382053932
 20
462.0126041416
 30
0.0
  0
VERTEX
  5
5A7
  8
0
  6
CONTINUOUS
 62
     7
 10
146.6385391792
 20
462.0075973514
 30
0.0
  0
SEQEND
  5
5A0
  8
0
  6
CONTINUOUS
 62
     7
  0
ARC
  5
108
  8
0
  6
CONTINUOUS
 62
     7
 10
146.4688482039
 20
461.981219784
 30
0.0
 40
0.0399912683904537
 50
359.9950594487
 51
90.0049405512
  0
LINE
  5
109
  8
0
  6
CONTINUOUS
 62
     7
 10
144.8218313297
 20
462.5220808032
 30
0.0
 11
145.2173737129
 21
462.5220808032
 31
0.0
  0
LINE
  5
10A
  8
0
  6
CONTINUOUS
 62
     7
 10
144.8218313297
 20
462.5220808032
 30
0.0
 11
144.8174623092
 21
462.0212110523
 31
0.0
  0
LINE
  5
10B
  8
0
  6
CONTINUOUS
 62
     7
 10
144.8174623092
 20
462.0212110523
 30
0.0
 11
145.2173737129
 21
462.0212110523
 31
0.0
  0
LINE
  5
10C
  8
0
  6
CONTINUOUS
 62
     7
 10
154.7538784583
 20
462.5220808032
 30
0.0
 11
155.0779548724
 21
462.5220808032
 31
0.0
  0
LINE
  5
10D
  8
0
  6
CONTINUOUS
 62
     7
 10
155.0779548724
 20
462.5220808032
 30
0.0
 11
155.0815371116
 21
462.0212110523
 31
0.0
  0
LINE
  5
10E
  8
0
  6
CONTINUOUS
 62
     7
 10
154.7538784583
 20
462.0212110523
 30
0.0
 11
155.0815371116
 21
462.0212110523
 31
0.0
  0
ARC
  5
10F
  8
0
  6
CONTINUOUS
 62
     7
 10
154.7811156755
 20
446.8353808072
 30
0.0
 40
15.01899770007499
 50
88.8538497203
 51
90.1039069633
  0
ARC
  5
110
  8
0
  6
CONTINUOUS
 62
     7
 10
154.8928490018
 20
461.8389508693
 30
0.0
 40
0.1890966061749422
 50
277.5540120914
 51
3.7667609961
  0
ARC
  5
111
  8
0
  6
CONTINUOUS
 62
     7
 10
154.7698722613
 20
458.0291839398
 30
0.0
 40
3.625326934036206
 50
87.6629139865
 51
90.2527717899
  0
LINE
  5
112
  8
0
  6
CONTINUOUS
 62
     7
 10
154.7538784583
 20
461.8543538097
 30
0.0
 11
154.7538784583
 21
461.6544755939
 31
0.0
  0
LINE
  5
113
  8
0
  6
CONTINUOUS
 62
     7
 10
155.0815371116
 20
461.8513735774
 30
0.0
 11
155.0815371116
 21
462.0212110523
 31
0.0
  0
LINE
  5
114
  8
0
  6
CONTINUOUS
 62
     7
 10
146.7088070949
 20
461.6544755939
 30
0.0
 11
146.7088070949
 21
461.8543538097
 31
0.0
  0
LINE
  5
115
  8
0
  6
CONTINUOUS
 62
     7
 10
153.2010344108
 20
461.6544755939
 30
0.0
 11
154.7538784583
 21
461.6544755939
 31
0.0
  0
POLYLINE
  5
116
  8
0
  6
CONTINUOUS
 62
     7
 66
     1
 10
0.0
 20
0.0
 30
0.0
  0
VERTEX
  5
5A9
  8
0
  6
CONTINUOUS
 62
     7
 10
153.0739930709
 20
461.6578611377
 30
0.0
  0
VERTEX
  5
5AA
  8
0
  6
CONTINUOUS
 62
     7
 10
153.1399038871
 20
461.6565975192
 30
0.0
  0
VERTEX
  5
5AB
  8
0
  6
CONTINUOUS
 62
     7
 10
153.2010344108
 20
461.6544755939
 30
0.0
  0
SEQEND
  5
5A8
  8
0
  6
CONTINUOUS
 62
     7
  0
LINE
  5
117
  8
0
  6
CONTINUOUS
 62
     7
 10
152.4739948352
 20
461.6578611377
 30
0.0
 11
153.0739930709
 21
461.6578611377
 31
0.0
  0
POLYLINE
  5
118
  8
0
  6
CONTINUOUS
 62
     7
 66
     1
 10
0.0
 20
0.0
 30
0.0
  0
VERTEX
  5
5AD
  8
0
  6
CONTINUOUS
 62
     7
 10
152.3469534953
 20
461.6544755939
 30
0.0
  0
VERTEX
  5
5AE
  8
0
  6
CONTINUOUS
 62
     7
 10
152.4051335891
 20
461.6564902309
 30
0.0
  0
VERTEX
  5
5AF
  8
0
  6
CONTINUOUS
 62
     7
 10
152.4739948352
 20
461.6578611377
 30
0.0
  0
SEQEND
  5
5AC
  8
0
  6
CONTINUOUS
 62
     7
  0
LINE
  5
119
  8
0
  6
CONTINUOUS
 62
     7
 10
146.7088070949
 20
461.6544755939
 30
0.0
 11
152.3469534953
 21
461.6544755939
 31
0.0
  0
ARC
  5
11A
  8
0
  6
CONTINUOUS
 62
     7
 10
146.7088932711
 20
461.8545294514
 30
0.0
 40
0.2000538760303072
 50
180.0503040903
 51
269.9753189939
  0
LINE
  5
11B
  8
0
  6
CONTINUOUS
 62
     7
 10
145.2173737129
 20
462.6212152484
 30
0.0
 11
145.2173737129
 21
462.5220808032
 31
0.0
  0
LINE
  5
11C
  8
0
  6
CONTINUOUS
 62
     7
 10
151.2818184932
 20
462.6212152484
 30
0.0
 11
147.2826150497
 21
462.6212152484
 31
0.0
  0
LINE
  5
11D
  8
0
  6
CONTINUOUS
 62
     7
 10
154.7538784583
 20
462.6212152484
 30
0.0
 11
154.7538784583
 21
462.5220808032
 31
0.0
  0
ARC
  5
11E
  8
0
  6
CONTINUOUS
 62
     7
 10
144.9218198021
 20
462.5212230983
 30
0.0
 40
0.0999921510706203
 50
90.0077938367
 51
179.5085266581
  0
LINE
  5
11F
  8
0
  6
CONTINUOUS
 62
     7
 10
145.2173737129
 20
462.6212152484
 30
0.0
 11
144.9218062003
 21
462.6212152484
 31
0.0
  0
LINE
  5
120
  8
0
  6
CONTINUOUS
 62
     7
 10
154.9960461696
 20
462.6212152484
 30
0.0
 11
154.7538784583
 21
462.6212152484
 31
0.0
  0
ARC
  5
121
  8
0
  6
CONTINUOUS
 62
     7
 10
154.98612179
 20
462.5296100556
 30
0.0
 40
0.0921412213184924
 50
355.312891339
 51
83.8167708254
  0
POLYLINE
  5
122
  8
0
  6
CONTINUOUS
 62
     7
 66
     1
 10
0.0
 20
0.0
 30
0.0
  0
VERTEX
  5
5B1
  8
0
  6
CONTINUOUS
 62
     7
 10
153.1375137409
 20
461.5545305255
 30
0.0
  0
VERTEX
  5
5B2
  8
0
  6
CONTINUOUS
 62
     7
 10
153.106948479
 20
461.5577134136
 30
0.0
  0
VERTEX
  5
5B3
  8
0
  6
CONTINUOUS
 62
     7
 10
153.0739930709
 20
461.5596207622
 30
0.0
  0
SEQEND
  5
5B0
  8
0
  6
CONTINUOUS
 62
     7
  0
LINE
  5
123
  8
0
  6
CONTINUOUS
 62
     7
 10
153.0739930709
 20
461.5596207622
 30
0.0
 11
153.0739930709
 21
461.6578611377
 31
0.0
  0
ARC
  5
124
  8
0
  6
CONTINUOUS
 62
     7
 10
153.2280313932
 20
461.5671595046
 30
0.0
 40
0.0913944008259528
 50
107.180918623
 51
187.9426081566
  0
POLYLINE
  5
125
  8
0
  6
CONTINUOUS
 62
     7
 66
     1
 10
0.0
 20
0.0
 30
0.0
  0
VERTEX
  5
5B5
  8
0
  6
CONTINUOUS
 62
     7
 10
152.4739948352
 20
461.5596207622
 30
0.0
  0
VERTEX
  5
5B6
  8
0
  6
CONTINUOUS
 62
     7
 10
152.4395612319
 20
461.5575584415
 30
0.0
  0
VERTEX
  5
5B7
  8
0
  6
CONTINUOUS
 62
     7
 10
152.4104741653
 20
461.5545305255
 30
0.0
  0
SEQEND
  5
5B4
  8
0
  6
CONTINUOUS
 62
     7
  0
ARC
  5
126
  8
0
  6
CONTINUOUS
 62
     7
 10
152.3199565129
 20
461.5671595046
 30
0.0
 40
0.0913944008259736
 50
352.0573918434
 51
72.819081377
  0
LINE
  5
127
  8
0
  6
CONTINUOUS
 62
     7
 10
152.4739948352
 20
461.5596207622
 30
0.0
 11
152.4739948352
 21
461.6578611377
 31
0.0
  0
LINE
  5
128
  8
0
  6
CONTINUOUS
 62
     7
 10
153.0739930709
 20
461.5596207622
 30
0.0
 11
152.4739948352
 21
461.5596207622
 31
0.0
  0
LINE
  5
129
  8
0
  6
CONTINUOUS
 62
     7
 10
155.4913369258
 20
461.8309291843
 30
0.0
 11
155.0815371116
 21
461.8513735774
 31
0.0
  0
ARC
  5
12A
  8
0
  6
CONTINUOUS
 62
     7
 10
155.3026355395
 20
461.8185173582
 30
0.0
 40
0.1891091394623863
 50
277.5575662329
 51
3.7632068546
  0
LINE
  5
12B
  8
0
  6
CONTINUOUS
 62
     7
 10
154.917707785
 20
461.6514953617
 30
0.0
 11
155.3275075992
 21
461.6310509685
 31
0.0
  0
LINE
  5
12C
  8
0
  6
CONTINUOUS
 62
     7
 10
155.0779548724
 20
462.5220808032
 30
0.0
 11
155.4877546867
 21
462.5220808032
 31
0.0
  0
LINE
  5
12D
  8
0
  6
CONTINUOUS
 62
     7
 10
155.4877546867
 20
462.5220808032
 30
0.0
 11
155.4913369258
 21
462.0212110523
 31
0.0
  0
LINE
  5
12E
  8
0
  6
CONTINUOUS
 62
     7
 10
155.0815371116
 20
462.0212110523
 30
0.0
 11
155.4913369258
 21
462.0212110523
 31
0.0
  0
LINE
  5
12F
  8
0
  6
CONTINUOUS
 62
     7
 10
155.4913369258
 20
461.8309291843
 30
0.0
 11
155.4913369258
 21
462.0212110523
 31
0.0
  0
ARC
  5
130
  8
0
  6
CONTINUOUS
 62
     7
 10
155.3959216043
 20
462.5296100556
 30
0.0
 40
0.0921412213185774
 50
355.312891339
 51
83.8167708254
  0
LINE
  5
131
  8
0
  6
CONTINUOUS
 62
     7
 10
146.696451052
 20
461.6297515872
 30
0.0
 11
146.7088070949
 21
461.6544755939
 31
0.0
  0
ARC
  5
132
  8
0
  6
CONTINUOUS
 62
     7
 10
146.6965654088
 20
461.8298336379
 30
0.0
 40
0.2000820833551605
 50
180.058370447
 51
269.9672526371
  0
LINE
  5
133
  8
0
  6
CONTINUOUS
 62
     7
 10
146.5088394721
 20
461.8543538097
 30
0.0
 11
146.4964834293
 21
461.829629803
 31
0.0
  0
LINE
  5
134
  8
0
  6
CONTINUOUS
 62
     7
 10
152.2739914497
 20
461.5898283962
 30
0.0
 11
151.180502518
 21
461.5898283962
 31
0.0
  0
LINE
  5
135
  8
0
  6
CONTINUOUS
 62
     7
 10
146.6832128604
 20
461.6246255878
 30
0.0
 11
151.180502518
 21
461.6246255878
 31
0.0
  0
ARC
  5
136
  8
0
  6
CONTINUOUS
 62
     7
 10
146.6816003896
 20
461.648447087
 30
0.0
 40
0.023876010655127
 50
273.8724286865
 51
308.4616700918
  0
ARC
  5
137
  8
0
  6
CONTINUOUS
 62
     7
 10
152.3385521394
 20
461.2723900709
 30
0.0
 40
0.3821778769638112
 50
88.7403744514
 51
99.7255186673
  0
LINE
  5
138
  8
0
  6
CONTINUOUS
 62
     7
 10
152.2739914497
 20
461.5898283962
 30
0.0
 11
152.2739914497
 21
461.6490754131
 31
0.0
  0
ARC
  5
139
  8
0
  6
CONTINUOUS
 62
     7
 10
153.1415859567
 20
461.4559283762
 30
0.0
 40
0.0986862037045995
 50
70.8299827079
 51
92.3649409522
  0
ARC
  5
13A
  8
0
  6
CONTINUOUS
 62
     7
 10
153.2135700026
 20
461.3282478857
 30
0.0
 40
0.3264684650080745
 50
79.333547907
 51
92.2005589742
  0
ARC
  5
13B
  8
0
  6
CONTINUOUS
 62
     7
 10
153.2739609787
 20
461.5491062176
 30
0.0
 40
0.0999692017764925
 50
89.979666497
 51
179.9793396248
  0
LINE
  5
13C
  8
0
  6
CONTINUOUS
 62
     7
 10
153.2739964565
 20
461.6490754131
 30
0.0
 11
153.2739964565
 21
461.5898283962
 31
0.0
  0
ARC
  5
13D
  8
0
  6
CONTINUOUS
 62
     7
 10
155.3310971649
 20
461.494052729
 30
0.0
 40
0.1370452575323604
 50
76.2607574994
 51
91.500894632
  0
LINE
  5
13E
  8
0
  6
CONTINUOUS
 62
     7
 10
155.3636458953
 20
461.6271766666
 30
0.0
 11
155.3649154743
 21
461.6246255878
 31
0.0
  0
POLYLINE
  5
13F
  8
0
  6
CONTINUOUS
 62
     7
 66
     1
 10
0.0
 20
0.0
 30
0.0
  0
VERTEX
  5
5B9
  8
0
  6
CONTINUOUS
 62
     7
 10
155.5739966472
 20
461.6062792781
 30
0.0
  0
VERTEX
  5
5BA
  8
0
  6
CONTINUOUS
 62
     7
 10
155.5416730483
 20
461.6124304775
 30
0.0
  0
VERTEX
  5
5BB
  8
0
  6
CONTINUOUS
 62
     7
 10
155.3660479625
 20
461.6245540622
 30
0.0
  0
VERTEX
  5
5BC
  8
0
  6
CONTINUOUS
 62
     7
 10
155.3649154743
 20
461.6246255878
 30
0.0
  0
SEQEND
  5
5B8
  8
0
  6
CONTINUOUS
 62
     7
  0
LINE
  5
140
  8
0
  6
CONTINUOUS
 62
     7
 10
155.5739966472
 20
461.6062792781
 30
0.0
 11
155.5804995139
 21
461.5932616237
 31
0.0
  0
ARC
  5
141
  8
0
  6
CONTINUOUS
 62
     7
 10
155.6561521163
 20
462.3388248543
 30
0.0
 40
0.7493916512711393
 50
264.206005245
 51
271.8608313506
  0
LINE
  5
142
  8
0
  6
CONTINUOUS
 62
     7
 10
155.6804863056
 20
461.5898283962
 30
0.0
 11
154.3683138927
 21
461.5898283962
 31
0.0
  0
ARC
  5
143
  8
0
  6
CONTINUOUS
 62
     7
 10
153.9804992517
 20
448.5346695133
 30
0.0
 40
13.06091779522289
 50
88.2984803283
 51
91.7015196717
  0
LINE
  5
144
  8
0
  6
CONTINUOUS
 62
     7
 10
153.5926846107
 20
461.5898283962
 30
0.0
 11
153.2739964565
 21
461.5898283962
 31
0.0
  0
ARC
  5
145
  8
0
  6
CONTINUOUS
 62
     7
 10
152.404384726
 20
461.4695848005
 30
0.0
 40
0.0851637098205229
 50
85.8996953418
 51
110.905380998
  0
ARC
  5
146
  8
0
  6
CONTINUOUS
 62
     7
 10
152.2740329122
 20
461.5491122067
 30
0.0
 40
0.0999632149466987
 50
0.0172288289
 51
90.0237650492
  0
ARC
  5
147
  8
0
  6
CONTINUOUS
 62
     7
 10
146.4565023473
 20
461.9812299703
 30
0.0
 40
0.0399810843408014
 50
359.980460593
 51
90.0195394069
  0
LINE
  5
148
  8
0
  6
CONTINUOUS
 62
     7
 10
146.4964834293
 20
461.829629803
 30
0.0
 11
146.4964834293
 21
461.9812163356
 31
0.0
  0
ARC
  5
149
  8
0
  6
CONTINUOUS
 62
     7
 10
152.6739942833
 20
461.3212122208
 30
0.0
 40
0.3000000000000114
 50
179.9999999984
 51
270.0
  0
LINE
  5
14A
  8
0
  6
CONTINUOUS
 62
     7
 10
152.3739961227
 20
461.321214104
 30
0.0
 11
152.4739948352
 21
461.321214104
 31
0.0
  0
ARC
  5
14B
  8
0
  6
CONTINUOUS
 62
     7
 10
152.6739942833
 20
461.3212122208
 30
0.0
 40
0.1999999999999886
 50
179.9999999976
 51
270.0
  0
LINE
  5
14C
  8
0
  6
CONTINUOUS
 62
     7
 10
152.6739922603
 20
461.0212120059
 30
0.0
 11
152.6739922603
 21
461.1212166789
 31
0.0
  0
LINE
  5
14D
  8
0
  6
CONTINUOUS
 62
     7
 10
152.3739961227
 20
461.321214104
 30
0.0
 11
152.3739961227
 21
461.5491422656
 31
0.0
  0
LINE
  5
14E
  8
0
  6
CONTINUOUS
 62
     7
 10
152.4739948352
 20
461.5596207622
 30
0.0
 11
152.4739948352
 21
461.321214104
 31
0.0
  0
ARC
  5
14F
  8
0
  6
CONTINUOUS
 62
     7
 10
152.8739942833
 20
461.3212122208
 30
0.0
 40
0.1999999999999886
 50
270.0
 51
0.0
  0
LINE
  5
150
  8
0
  6
CONTINUOUS
 62
     7
 10
152.6739922603
 20
461.1212166789
 30
0.0
 11
152.8739956458
 21
461.1212166789
 31
0.0
  0
LINE
  5
151
  8
0
  6
CONTINUOUS
 62
     7
 10
153.0739930709
 20
461.321214104
 30
0.0
 11
153.0739930709
 21
461.5596207622
 31
0.0
  0
LINE
  5
152
  8
0
  6
CONTINUOUS
 62
     7
 10
153.1739917835
 20
461.321214104
 30
0.0
 11
153.0739930709
 21
461.321214104
 31
0.0
  0
LINE
  5
153
  8
0
  6
CONTINUOUS
 62
     7
 10
153.1739917835
 20
461.5491422656
 30
0.0
 11
153.1739917835
 21
461.321214104
 31
0.0
  0
ARC
  5
154
  8
0
  6
CONTINUOUS
 62
     7
 10
152.8739942833
 20
461.3212122208
 30
0.0
 40
0.3000000000000114
 50
270.0
 51
0.0
  0
LINE
  5
155
  8
0
  6
CONTINUOUS
 62
     7
 10
152.8739956458
 20
461.0212120059
 30
0.0
 11
152.8739956458
 21
461.1212166789
 31
0.0
  0
LINE
  5
156
  8
0
  6
CONTINUOUS
 62
     7
 10
152.8739956458
 20
461.0212120059
 30
0.0
 11
152.6739922603
 21
461.0212120059
 31
0.0
  0
ARC
  5
157
  8
0
  6
CONTINUOUS
 62
     7
 10
152.2739828071
 20
461.4898150734
 30
0.0
 40
0.1000133231828651
 50
359.9776381955
 51
89.9950488367
  0
ARC
  5
158
  8
0
  6
CONTINUOUS
 62
     7
 10
153.2740110893
 20
461.489809086
 30
0.0
 40
0.1000193112579633
 50
90.008382355
 51
180.0189306129
  0
LINE
  5
159
  8
0
  6
CONTINUOUS
 62
     7
 10
144.8109832843
 20
462.5220808032
 30
0.0
 11
144.8218313297
 21
462.5220808032
 31
0.0
  0
LINE
  5
15A
  8
0
  6
CONTINUOUS
 62
     7
 10
144.8109832843
 20
462.5220808032
 30
0.0
 11
144.8066142638
 21
462.0212110523
 31
0.0
  0
LINE
  5
15B
  8
0
  6
CONTINUOUS
 62
     7
 10
144.8066142638
 20
462.0212110523
 30
0.0
 11
144.8174623092
 21
462.0212110523
 31
0.0
  0
ARC
  5
15C
  8
0
  6
CONTINUOUS
 62
     7
 10
144.9109717567
 20
462.5212230983
 30
0.0
 40
0.0999921510706203
 50
90.0077938367
 51
179.5085266581
  0
ARC
  5
15D
  8
0
  6
CONTINUOUS
 62
     7
 10
155.4988186557
 20
461.294392769
 30
0.0
 40
0.5365885771969432
 50
83.064418109
 51
90.7989089914
  0
ARC
  5
15E
  8
0
  6
CONTINUOUS
 62
     7
 10
155.3635597191
 20
461.8272305241
 30
0.0
 40
0.2000538760303582
 50
270.0246810061
 51
359.9496959097
  0
LINE
  5
15F
  8
0
  6
CONTINUOUS
 62
     7
 10
155.4877546867
 20
462.5220808032
 30
0.0
 11
155.5592444976
 21
462.5220808032
 31
0.0
  0
LINE
  5
160
  8
0
  6
CONTINUOUS
 62
     7
 10
155.5592444976
 20
462.5220808032
 30
0.0
 11
155.5636135181
 21
462.0212110523
 31
0.0
  0
LINE
  5
161
  8
0
  6
CONTINUOUS
 62
     7
 10
155.4913369258
 20
462.0212110523
 30
0.0
 11
155.5636135181
 21
462.0212110523
 31
0.0
  0
LINE
  5
162
  8
0
  6
CONTINUOUS
 62
     7
 10
155.5636135181
 20
461.8270548824
 30
0.0
 11
155.5636135181
 21
462.0212110523
 31
0.0
  0
ARC
  5
163
  8
0
  6
CONTINUOUS
 62
     7
 10
155.4592560261
 20
462.5212230985
 30
0.0
 40
0.0999921501846899
 50
0.4914732014
 51
89.9956220323
  0
LINE
  5
164
  8
0
  6
CONTINUOUS
 62
     7
 10
144.8065248569
 20
462.0212110523
 30
0.0
 11
144.8066142638
 21
462.0212110523
 31
0.0
  0
ARC
  5
165
  8
0
  6
CONTINUOUS
 62
     7
 10
146.4839955158
 20
461.8419471295
 30
0.0
 40
0.017540368100213
 50
276.0297457759
 51
315.3940199576
  0
ARC
  5
166
  8
0
  6
CONTINUOUS
 62
     7
 10
146.6857894062
 20
461.8245603611
 30
0.0
 40
0.199951374470894
 50
180.0162064666
 51
269.2616740743
  0
ARC
  5
167
  8
0
  6
CONTINUOUS
 62
     7
 10
145.067659836
 20
461.9912050023
 30
0.0
 40
0.6222383509356583
 50
359.080202911
 51
2.7640325341
  0
ARC
  5
168
  8
0
  6
CONTINUOUS
 62
     7
 10
147.6085963047
 20
460.5366393754
 30
0.0
 40
1.708561063255902
 50
131.0818689534
 51
153.2415973488
  0
ARC
  5
169
  8
0
  6
CONTINUOUS
 62
     7
 10
145.2758737879
 20
461.6968260983
 30
0.0
 40
0.8968214363012331
 50
311.5332592379
 51
334.1561571384
  0
ARC
  5
16A
  8
0
  6
CONTINUOUS
 62
     7
 10
145.770394422
 20
513.2069540429
 30
0.0
 40
52.1815584748942
 50
270.0092771638
 51
270.1099337778
  0
ARC
  5
16B
  8
0
  6
CONTINUOUS
 62
     7
 10
145.7854484841
 20
461.1208979335
 30
0.0
 40
0.0957298119815497
 50
177.3896049894
 51
266.0436748709
  0
LINE
  5
16C
  8
0
  6
CONTINUOUS
 62
     7
 10
145.6898180087
 20
461.1252578739
 30
0.0
 11
145.6898180087
 21
461.9812163356
 31
0.0
  0
ARC
  5
16D
  8
0
  6
CONTINUOUS
 62
     7
 10
147.4683920427
 20
460.0958090297
 30
0.0
 40
1.718658318723961
 50
117.1844094198
 51
138.453556002
  0
ARC
  5
16E
  8
0
  6
CONTINUOUS
 62
     7
 10
146.5009631782
 20
461.7908279459
 30
0.0
 40
0.6402062270329734
 50
229.2426430253
 51
240.1297679345
  0
LINE
  5
16F
  8
0
  6
CONTINUOUS
 62
     7
 10
155.5648890575
 20
461.8245038036
 30
0.0
 11
155.5636135181
 21
461.8270548824
 31
0.0
  0
ARC
  5
170
  8
0
  6
CONTINUOUS
 62
     7
 10
155.3648258732
 20
461.8246888376
 30
0.0
 40
0.2000632698722115
 50
270.0256607028
 51
359.9470084149
  0
LINE
  5
171
  8
0
  6
CONTINUOUS
 62
     7
 10
155.5592444976
 20
462.5220808032
 30
0.0
 11
155.5762079795
 21
462.5220808032
 31
0.0
  0
LINE
  5
172
  8
0
  6
CONTINUOUS
 62
     7
 10
155.5762079795
 20
462.5220808032
 30
0.0
 11
155.5804995139
 21
462.0212110523
 31
0.0
  0
POLYLINE
  5
173
  8
0
  6
CONTINUOUS
 62
     7
 66
     1
 10
0.0
 20
0.0
 30
0.0
  0
VERTEX
  5
5BE
  8
0
  6
CONTINUOUS
 62
     7
 10
155.5804995139
 20
462.0212110523
 30
0.0
  0
VERTEX
  5
5BF
  8
0
  6
CONTINUOUS
 62
     7
 10
155.5804995139
 20
462.0212110523
 30
0.0
  0
SEQEND
  5
5BD
  8
0
  6
CONTINUOUS
 62
     7
  0
LINE
  5
174
  8
0
  6
CONTINUOUS
 62
     7
 10
155.5636135181
 20
462.0212110523
 30
0.0
 11
155.5804995139
 21
462.0212110523
 31
0.0
  0
ARC
  5
175
  8
0
  6
CONTINUOUS
 62
     7
 10
155.4762161102
 20
462.5212196717
 30
0.0
 40
0.0999955773203172
 50
0.4934199384
 51
89.9936752954
  0
LINE
  5
176
  8
0
  6
CONTINUOUS
 62
     7
 10
155.5804995139
 20
462.0212110523
 30
0.0
 11
155.5804995139
 21
461.5932616237
 31
0.0
  0
ARC
  5
177
  8
0
  6
CONTINUOUS
 62
     7
 10
153.4342975156
 20
461.6262813564
 30
0.0
 40
2.139792620089056
 50
359.4644100815
 51
5.3152891228
  0
LINE
  5
178
  8
0
  6
CONTINUOUS
 62
     7
 10
146.1821166118
 20
461.2356695178
 30
0.0
 11
151.180502518
 21
461.2356695178
 31
0.0
  0
LINE
  5
179
  8
0
  6
CONTINUOUS
 62
     7
 10
151.180502518
 20
461.6246255878
 30
0.0
 11
151.180502518
 21
461.2356695178
 31
0.0
  0
LINE
  5
17A
  8
0
  6
CONTINUOUS
 62
     7
 10
147.6820436557
 20
462.6410397533
 30
0.0
 11
147.6820436557
 21
462.6212152484
 31
0.0
  0
ARC
  5
17B
  8
0
  6
CONTINUOUS
 62
     7
 10
147.7020439943
 20
464.7846889148
 30
0.0
 40
2.143742461453116
 50
269.4654434321
 51
270.5345565679
  0
ARC
  5
17C
  8
0
  6
CONTINUOUS
 62
     7
 10
147.7420431313
 20
462.6412122208
 30
0.0
 40
0.0199999999999977
 50
180.5
 51
270.0
  0
ARC
  5
17D
  8
0
  6
CONTINUOUS
 62
     7
 10
150.8223906829
 20
462.6412122208
 30
0.0
 40
0.0200000000000326
 50
270.0
 51
359.4999999979
  0
ARC
  5
17E
  8
0
  6
CONTINUOUS
 62
     7
 10
150.8623895486
 20
464.7846889148
 30
0.0
 40
2.143742461442713
 50
269.4654434321
 51
270.5345565679
  0
LINE
  5
17F
  8
0
  6
CONTINUOUS
 62
     7
 10
150.8823898872
 20
462.6410397533
 30
0.0
 11
150.8823898872
 21
462.6212152484
 31
0.0
  0
ARC
  5
180
  8
0
  6
CONTINUOUS
 62
     7
 10
147.6851103147
 20
463.4334659277
 30
0.0
 40
1.148272597442261
 50
89.0019852947
 51
90.9980147053
  0
LINE
  5
181
  8
0
  6
CONTINUOUS
 62
     7
 10
147.7220443328
 20
462.6410397533
 30
0.0
 11
147.7051106532
 21
464.5815643314
 31
0.0
  0
LINE
  5
182
  8
0
  6
CONTINUOUS
 62
     7
 10
147.6651099761
 20
464.5815643314
 30
0.0
 11
147.6820436557
 21
462.6410397533
 31
0.0
  0
ARC
  5
183
  8
0
  6
CONTINUOUS
 62
     7
 10
150.8793232282
 20
463.4334659277
 30
0.0
 40
1.148272597435838
 50
89.0019852947
 51
90.9980147053
  0
LINE
  5
184
  8
0
  6
CONTINUOUS
 62
     7
 10
150.8823898872
 20
462.6410397533
 30
0.0
 11
150.8993235668
 21
464.5815643314
 31
0.0
  0
LINE
  5
185
  8
0
  6
CONTINUOUS
 62
     7
 10
150.8593228896
 20
464.5815643314
 30
0.0
 11
150.8423892101
 21
462.6410397533
 31
0.0
  0
LINE
  5
186
  8
0
  6
CONTINUOUS
 62
     7
 10
147.6651099761
 20
464.6212133411
 30
0.0
 11
147.6322141727
 21
464.6212133411
 31
0.0
  0
LINE
  5
187
  8
0
  6
CONTINUOUS
 62
     7
 10
147.6651099761
 20
464.5815643314
 30
0.0
 11
147.6651099761
 21
464.6212133411
 31
0.0
  0
ARC
  5
188
  8
0
  6
CONTINUOUS
 62
     7
 10
147.6651107231
 20
464.5812122208
 30
0.0
 40
0.0400000000000205
 50
0.5
 51
90.0
  0
LINE
  5
189
  8
0
  6
CONTINUOUS
 62
     7
 10
150.8993235668
 20
464.5815643314
 30
0.0
 11
150.8993235668
 21
464.6212133411
 31
0.0
  0
LINE
  5
18A
  8
0
  6
CONTINUOUS
 62
     7
 10
150.9322193702
 20
464.6212133411
 30
0.0
 11
150.8993235668
 21
464.6212133411
 31
0.0
  0
ARC
  5
18B
  8
0
  6
CONTINUOUS
 62
     7
 10
150.8993230911
 20
464.5812122208
 30
0.0
 40
0.0400000000000773
 50
90.0
 51
179.4999999999
  0
LINE
  5
18C
  8
0
  6
CONTINUOUS
 62
     7
 10
148.5223797401
 20
462.6410397533
 30
0.0
 11
148.5223797401
 21
462.6212152484
 31
0.0
  0
LINE
  5
18D
  8
0
  6
CONTINUOUS
 62
     7
 10
150.0620511611
 20
462.6410397533
 30
0.0
 11
148.5223797401
 21
462.6410397533
 31
0.0
  0
LINE
  5
18E
  8
0
  6
CONTINUOUS
 62
     7
 10
150.0620511611
 20
462.6410397533
 30
0.0
 11
150.0620511611
 21
462.6212152484
 31
0.0
  0
ARC
  5
18F
  8
0
  6
CONTINUOUS
 62
     7
 10
148.3023906829
 20
462.6412122208
 30
0.0
 40
0.0199999999999818
 50
270.0
 51
359.5
  0
ARC
  5
190
  8
0
  6
CONTINUOUS
 62
     7
 10
148.4223840078
 20
516.2289727527
 30
0.0
 40
53.58802629591743
 50
269.8930855053
 51
270.1069144947
  0
ARC
  5
191
  8
0
  6
CONTINUOUS
 62
     7
 10
150.1620468934
 20
516.2286042304
 30
0.0
 40
53.58765777431253
 50
269.89308477
 51
270.10691523
  0
ARC
  5
192
  8
0
  6
CONTINUOUS
 62
     7
 10
150.2820431313
 20
462.6412122208
 30
0.0
 40
0.0200000000000262
 50
180.5
 51
270.0
  0
ARC
  5
193
  8
0
  6
CONTINUOUS
 62
     7
 10
148.4393206676
 20
435.8796461179
 30
0.0
 40
28.70209241282612
 50
89.8003798575
 51
90.1996201425
  0
LINE
  5
194
  8
0
  6
CONTINUOUS
 62
     7
 10
148.5223797401
 20
462.6410397533
 30
0.0
 11
148.5393193801
 21
464.5815643314
 31
0.0
  0
LINE
  5
195
  8
0
  6
CONTINUOUS
 62
     7
 10
148.339321955
 20
464.5815643314
 30
0.0
 11
148.3223882755
 21
462.6410397533
 31
0.0
  0
ARC
  5
196
  8
0
  6
CONTINUOUS
 62
     7
 10
150.1451132139
 20
435.8829068783
 30
0.0
 40
28.69883166183886
 50
89.8003631266
 51
90.1996368734
  0
LINE
  5
197
  8
0
  6
CONTINUOUS
 62
     7
 10
150.2620426257
 20
462.6410397533
 30
0.0
 11
150.2451089462
 21
464.5815643314
 31
0.0
  0
LINE
  5
198
  8
0
  6
CONTINUOUS
 62
     7
 10
150.0451174815
 20
464.5815643314
 30
0.0
 11
150.0620511611
 21
462.6410397533
 31
0.0
  0
LINE
  5
199
  8
0
  6
CONTINUOUS
 62
     7
 10
148.5393193801
 20
464.5815643314
 30
0.0
 11
150.0451174815
 21
464.5815643314
 31
0.0
  0
LINE
  5
19A
  8
0
  6
CONTINUOUS
 62
     7
 10
150.0451174815
 20
464.5815643314
 30
0.0
 11
150.0451174815
 21
464.6212133411
 31
0.0
  0
LINE
  5
19B
  8
0
  6
CONTINUOUS
 62
     7
 10
148.5393193801
 20
464.5815643314
 30
0.0
 11
148.5393193801
 21
464.6212133411
 31
0.0
  0
LINE
  5
19C
  8
0
  6
CONTINUOUS
 62
     7
 10
150.0451174815
 20
464.6212133411
 30
0.0
 11
148.5393193801
 21
464.6212133411
 31
0.0
  0
ARC
  5
19D
  8
0
  6
CONTINUOUS
 62
     7
 10
150.2051107231
 20
464.5812122208
 30
0.0
 40
0.0400000000000773
 50
0.5000000001
 51
90.0
  0
LINE
  5
19E
  8
0
  6
CONTINUOUS
 62
     7
 10
150.2051082691
 20
464.6212133411
 30
0.0
 11
150.0451174815
 21
464.6212133411
 31
0.0
  0
ARC
  5
19F
  8
0
  6
CONTINUOUS
 62
     7
 10
148.3793230911
 20
464.5812122208
 30
0.0
 40
0.0400000000000244
 50
90.0
 51
179.5
  0
LINE
  5
1A0
  8
0
  6
CONTINUOUS
 62
     7
 10
148.5393193801
 20
464.6212133411
 30
0.0
 11
148.3793226321
 21
464.6212133411
 31
0.0
  0
ARC
  5
1A1
  8
0
  6
CONTINUOUS
 62
     7
 10
147.9051021179
 20
349.7881878729
 30
0.0
 40
114.7935506695761
 50
89.9001801705
 51
90.0998198295
  0
LINE
  5
1A2
  8
0
  6
CONTINUOUS
 62
     7
 10
148.122027262
 20
462.6410397533
 30
0.0
 11
148.1050935825
 21
464.5815643314
 31
0.0
  0
ARC
  5
1A3
  8
0
  6
CONTINUOUS
 62
     7
 10
147.9220357974
 20
676.9921301944
 30
0.0
 40
214.3511837379765
 50
269.9465425461
 51
270.0534574539
  0
LINE
  5
1A4
  8
0
  6
CONTINUOUS
 62
     7
 10
148.122027262
 20
462.6410397533
 30
0.0
 11
148.122027262
 21
462.6212152484
 31
0.0
  0
LINE
  5
1A5
  8
0
  6
CONTINUOUS
 62
     7
 10
148.1050935825
 20
464.5815643314
 30
0.0
 11
148.1050935825
 21
464.6212133411
 31
0.0
  0
LINE
  5
1A6
  8
0
  6
CONTINUOUS
 62
     7
 10
148.1050935825
 20
464.6212133411
 30
0.0
 11
147.6651099761
 21
464.6212133411
 31
0.0
  0
ARC
  5
1A7
  8
0
  6
CONTINUOUS
 62
     7
 10
149.3824889386
 20
458.877320079
 30
0.0
 40
1.430393501252279
 50
86.9911472491
 51
90.9761560923
  0
ARC
  5
1A8
  8
0
  6
CONTINUOUS
 62
     7
 10
149.2014856253
 20
458.9967816834
 30
0.0
 40
1.310991921078801
 50
88.8422885206
 51
93.190408138
  0
LINE
  5
1A9
  8
0
  6
CONTINUOUS
 62
     7
 10
145.9666160186
 20
460.9903844837
 30
0.0
 11
145.8705154498
 21
461.0254916194
 31
0.0
  0
ARC
  5
1AA
  8
0
  6
CONTINUOUS
 62
     7
 10
145.3074346076
 20
461.7868318192
 30
0.0
 40
1.033851290512281
 50
309.6129332149
 51
327.7837906272
  0
LINE
  5
1AB
  8
0
  6
CONTINUOUS
 62
     7
 10
149.5582488616
 20
460.3270086292
 30
0.0
 11
149.0278450092
 21
460.3270086292
 31
0.0
  0
ARC
  5
1AC
  8
0
  6
CONTINUOUS
 62
     7
 10
147.6960047231
 20
460.7921556369
 30
0.0
 40
0.1942384411858944
 50
1.3526746557
 51
90.3239995268
  0
LINE
  5
1AD
  8
0
  6
CONTINUOUS
 62
     7
 10
147.6949063381
 20
460.9863909725
 30
0.0
 11
145.9666160186
 21
460.9903844837
 31
0.0
  0
LINE
  5
1AE
  8
0
  6
CONTINUOUS
 62
     7
 10
151.180502518
 20
461.2356695178
 30
0.0
 11
151.180502518
 21
460.1995381359
 31
0.0
  0
LINE
  5
1AF
  8
0
  6
CONTINUOUS
 62
     7
 10
148.1223968108
 20
462.6410397533
 30
0.0
 11
148.1223968108
 21
462.6212152484
 31
0.0
  0
ARC
  5
1B0
  8
0
  6
CONTINUOUS
 62
     7
 10
148.2223925432
 20
516.2278222021
 30
0.0
 40
53.58687574738235
 50
269.8930832097
 51
270.1069167903
  0
ARC
  5
1B1
  8
0
  6
CONTINUOUS
 62
     7
 10
148.2393262227
 20
435.8846176283
 30
0.0
 40
28.69712092220899
 50
89.8003512255
 51
90.1996487745
  0
LINE
  5
1B2
  8
0
  6
CONTINUOUS
 62
     7
 10
148.1393304904
 20
464.5815643314
 30
0.0
 11
148.1223968108
 21
462.6410397533
 31
0.0
  0
ARC
  5
1B3
  8
0
  6
CONTINUOUS
 62
     7
 10
150.362038358
 20
516.2289727373
 30
0.0
 40
53.58802628057701
 50
269.8930855052
 51
270.1069144948
  0
LINE
  5
1B4
  8
0
  6
CONTINUOUS
 62
     7
 10
150.4620340904
 20
462.6410397533
 30
0.0
 11
150.4620340904
 21
462.6212152484
 31
0.0
  0
ARC
  5
1B5
  8
0
  6
CONTINUOUS
 62
     7
 10
150.1196673264
 20
465.0897858319
 30
0.0
 40
0.5379893169939554
 50
289.1954492369
 51
307.1296780465
  0
LINE
  5
1B6
  8
0
  6
CONTINUOUS
 62
     7
 10
150.4620340904
 20
462.6410397533
 30
0.0
 11
150.4444089969
 21
464.6608623508
 31
0.0
  0
ARC
  5
1B7
  8
0
  6
CONTINUOUS
 62
     7
 10
150.2824607695
 20
460.3993989144
 30
0.0
 40
4.182332212245222
 50
89.806933598
 51
90.5117073856
  0
LINE
  5
1B8
  8
0
  6
CONTINUOUS
 62
     7
 10
150.6423977454
 20
462.6410397533
 30
0.0
 11
150.6423977454
 21
462.6212152484
 31
0.0
  0
ARC
  5
1B9
  8
0
  6
CONTINUOUS
 62
     7
 10
150.7423934778
 20
516.2278222021
 30
0.0
 40
53.58687574740713
 50
269.8930832097
 51
270.1069167903
  0
ARC
  5
1BA
  8
0
  6
CONTINUOUS
 62
     7
 10
150.9430288126
 20
465.0118369955
 30
0.0
 40
0.4508609346162405
 50
231.1192719363
 51
252.5575228921
  0
ARC
  5
1BB
  8
0
  6
CONTINUOUS
 62
     7
 10
150.8219789288
 20
460.4016390539
 30
0.0
 40
4.180092091927523
 50
89.4881261561
 51
90.193195938
  0
LINE
  5
1BC
  8
0
  6
CONTINUOUS
 62
     7
 10
150.6600228389
 20
464.6608623508
 30
0.0
 11
150.6423977454
 21
462.6410397533
 31
0.0
  0
ARC
  5
1BD
  8
0
  6
CONTINUOUS
 62
     7
 10
128.9996381869
 20
461.0171851272
 30
0.0
 40
16.96699899853632
 50
359.6904238478
 51
359.9094969947
  0
LINE
  5
1BE
  8
0
  6
CONTINUOUS
 62
     7
 10
145.8939341148
 20
460.9255107883
 30
0.0
 11
145.966389521
 21
460.9255107883
 31
0.0
  0
ARC
  5
1BF
  8
0
  6
CONTINUOUS
 62
     7
 10
145.998273876
 20
461.0026835628
 30
0.0
 40
0.1297783606583759
 50
169.8779134499
 51
216.4877251472
  0
POLYLINE
  5
1C0
  8
0
  6
CONTINUOUS
 62
     7
 66
     1
 10
0.0
 20
0.0
 30
0.0
  0
VERTEX
  5
5C1
  8
0
  6
CONTINUOUS
 62
     7
 10
147.7902022441
 20
460.8318599704
 30
0.0
  0
VERTEX
  5
5C2
  8
0
  6
CONTINUOUS
 62
     7
 10
147.7924016555
 20
460.8250769618
 30
0.0
  0
VERTEX
  5
5C3
  8
0
  6
CONTINUOUS
 62
     7
 10
147.7982786735
 20
460.8185562137
 30
0.0
  0
VERTEX
  5
5C4
  8
0
  6
CONTINUOUS
 62
     7
 10
147.8076127609
 20
460.8125242237
 30
0.0
  0
VERTEX
  5
5C5
  8
0
  6
CONTINUOUS
 62
     7
 10
147.8200582107
 20
460.8072313312
 30
0.0
  0
VERTEX
  5
5C6
  8
0
  6
CONTINUOUS
 62
     7
 10
147.8351441463
 20
460.8028563503
 30
0.0
  0
VERTEX
  5
5C7
  8
0
  6
CONTINUOUS
 62
     7
 10
147.852298363
 20
460.7995780948
 30
0.0
  0
VERTEX
  5
5C8
  8
0
  6
CONTINUOUS
 62
     7
 10
147.8708830913
 20
460.7975157741
 30
0.0
  0
VERTEX
  5
5C9
  8
0
  6
CONTINUOUS
 62
     7
 10
147.8901890357
 20
460.7967409137
 30
0.0
  0
SEQEND
  5
5C0
  8
0
  6
CONTINUOUS
 62
     7
  0
ARC
  5
1C1
  8
0
  6
CONTINUOUS
 62
     7
 10
147.6970505559
 20
460.8283288355
 30
0.0
 40
0.0932185921909938
 50
2.1708924867
 51
91.4572912564
  0
ARC
  5
1C2
  8
0
  6
CONTINUOUS
 62
     7
 10
130.7279285063
 20
461.013191616
 30
0.0
 40
16.96699899853632
 50
359.6904238478
 51
359.9094969947
  0
LINE
  5
1C3
  8
0
  6
CONTINUOUS
 62
     7
 10
145.591446503
 20
461.9812163356
 30
0.0
 11
145.6898180087
 21
461.9812163356
 31
0.0
  0
ARC
  5
1C4
  8
0
  6
CONTINUOUS
 62
     7
 10
146.204993701
 20
461.9750076482
 30
0.0
 40
0.6135786111025182
 50
175.6814526902
 51
179.420224807
  0
ARC
  5
1C5
  8
0
  6
CONTINUOUS
 62
     7
 10
150.2609005842
 20
464.5858189292
 30
0.0
 40
0.0358894212091856
 50
353.4216651717
 51
80.4728826558
  0
LINE
  5
1C6
  8
0
  6
CONTINUOUS
 62
     7
 10
150.2668407996
 20
464.6212133411
 30
0.0
 11
150.2051082691
 21
464.6212133411
 31
0.0
  0
ARC
  5
1C7
  8
0
  6
CONTINUOUS
 62
     7
 10
150.8435348602
 20
464.5858215943
 30
0.0
 40
0.0358873903372759
 50
99.5335035398
 51
186.5829919761
  0
LINE
  5
1C8
  8
0
  6
CONTINUOUS
 62
     7
 10
150.8993235668
 20
464.6212133411
 30
0.0
 11
150.8375910362
 21
464.6212133411
 31
0.0
  0
LINE
  5
1C9
  8
0
  6
CONTINUOUS
 62
     7
 10
148.1393304904
 20
464.5815643314
 30
0.0
 11
148.1393304904
 21
464.6212133411
 31
0.0
  0
LINE
  5
1CA
  8
0
  6
CONTINUOUS
 62
     7
 10
148.3793226321
 20
464.6212133411
 30
0.0
 11
148.1393304904
 21
464.6212133411
 31
0.0
  0
LINE
  5
1CB
  8
0
  6
CONTINUOUS
 62
     7
 10
145.966389521
 20
460.9255107883
 30
0.0
 11
147.6946798404
 21
460.9215172771
 31
0.0
  0
ARC
  5
1CC
  8
0
  6
CONTINUOUS
 62
     7
 10
149.3264408071
 20
465.8452604758
 30
0.0
 40
0.6163221435721182
 50
354.0676289046
 51
357.7635859945
  0
LINE
  5
1CD
  8
0
  6
CONTINUOUS
 62
     7
 10
149.8415616592
 20
464.6608623508
 30
0.0
 11
149.9394622882
 21
465.7815608028
 31
0.0
  0
ARC
  5
1CE
  8
0
  6
CONTINUOUS
 62
     7
 10
150.4642306961
 20
464.5963797415
 30
0.0
 40
0.6259989907406813
 50
174.0876161081
 51
177.7264597344
  0
LINE
  5
1CF
  8
0
  6
CONTINUOUS
 62
     7
 10
149.4547632774
 20
460.3029283527
 30
0.0
 11
149.4575706561
 21
460.3057416919
 31
0.0
  0
LINE
  5
1D0
  8
0
  6
CONTINUOUS
 62
     7
 10
149.4547632774
 20
460.3029283527
 30
0.0
 11
149.4550434192
 21
460.3061589244
 31
0.0
  0
LINE
  5
1D1
  8
0
  6
CONTINUOUS
 62
     7
 10
149.9339727004
 20
465.7815608028
 30
0.0
 11
149.832281216
 21
464.6212133411
 31
0.0
  0
ARC
  5
1D2
  8
0
  6
CONTINUOUS
 62
     7
 10
150.5543983296
 20
465.7373356264
 30
0.0
 40
0.6219998613699623
 50
172.2502857577
 51
175.9227389056
  0
LINE
  5
1D3
  8
0
  6
CONTINUOUS
 62
     7
 10
149.9422935088
 20
465.8212098125
 30
0.0
 11
149.9380794605
 21
465.8212098125
 31
0.0
  0
LINE
  5
1D4
  8
0
  6
CONTINUOUS
 62
     7
 10
149.1310504516
 20
460.3061589244
 30
0.0
 11
149.1313305934
 21
460.3029283527
 31
0.0
  0
LINE
  5
1D5
  8
0
  6
CONTINUOUS
 62
     7
 10
149.1313305934
 20
460.3029283527
 30
0.0
 11
149.1285232147
 21
460.3057416919
 31
0.0
  0
ARC
  5
1D6
  8
0
  6
CONTINUOUS
 62
     7
 10
145.7959142118
 20
511.1760302131
 30
0.0
 40
50.25061502469847
 50
269.9944884163
 51
270.1117624193
  0
ARC
  5
1D7
  8
0
  6
CONTINUOUS
 62
     7
 10
145.9968182246
 20
461.0013353099
 30
0.0
 40
0.2192986703157715
 50
173.700958466
 51
200.2547004388
  0
ARC
  5
1D8
  8
0
  6
CONTINUOUS
 62
     7
 10
145.7913002557
 20
461.1252690529
 30
0.0
 40
0.1998537530073148
 50
180.0032048935
 51
269.9369526064
  0
LINE
  5
1D9
  8
0
  6
CONTINUOUS
 62
     7
 10
145.591446503
 20
461.1252578739
 30
0.0
 11
145.6898180087
 21
461.1252578739
 31
0.0
  0
LINE
  5
1DA
  8
0
  6
CONTINUOUS
 62
     7
 10
145.591446503
 20
461.9812163356
 30
0.0
 11
145.591446503
 21
461.1252578739
 31
0.0
  0
LINE
  5
1DB
  8
0
  6
CONTINUOUS
 62
     7
 10
145.591446503
 20
461.1252578739
 30
0.0
 11
145.5896404823
 21
461.1234578136
 31
0.0
  0
LINE
  5
1DC
  8
0
  6
CONTINUOUS
 62
     7
 10
145.5897775729
 20
462.0212110523
 30
0.0
 11
145.5896404823
 21
461.1234578136
 31
0.0
  0
ARC
  5
1DD
  8
0
  6
CONTINUOUS
 62
     7
 10
147.5874835402
 20
453.9986474369
 30
0.0
 40
6.919449583626239
 50
88.6375967817
 51
89.968434768
  0
LINE
  5
1DE
  8
0
  6
CONTINUOUS
 62
     7
 10
145.7890001376
 20
460.9233411792
 30
0.0
 11
147.591295584
 21
460.9180959705
 31
0.0
  0
LINE
  5
1DF
  8
0
  6
CONTINUOUS
 62
     7
 10
145.7890001376
 20
460.9233411792
 30
0.0
 11
145.7910803397
 21
460.9254154209
 31
0.0
  0
ARC
  5
1E0
  8
0
  6
CONTINUOUS
 62
     7
 10
145.7896623334
 20
461.1233619572
 30
0.0
 40
0.2000218740750997
 50
179.9725421562
 51
269.8103152977
  0
ARC
  5
1E1
  8
0
  6
CONTINUOUS
 62
     7
 10
150.9878247106
 20
465.7114795896
 30
0.0
 40
1.10056833027557
 50
252.6716163728
 51
262.1543129988
  0
ARC
  5
1E2
  8
0
  6
CONTINUOUS
 62
     7
 10
150.1565753983
 20
465.5324815701
 30
0.0
 40
0.9179151616131143
 50
276.8993697109
 51
288.2747009175
  0
LINE
  5
1E3
  8
0
  6
CONTINUOUS
 62
     7
 10
150.4444089969
 20
464.6608623508
 30
0.0
 11
149.8415616592
 21
464.6608623508
 31
0.0
  0
LINE
  5
1E4
  8
0
  6
CONTINUOUS
 62
     7
 10
148.1223968108
 20
462.6410397533
 30
0.0
 11
148.122027262
 21
462.6410397533
 31
0.0
  0
LINE
  5
1E5
  8
0
  6
CONTINUOUS
 62
     7
 10
150.6423977454
 20
462.6410397533
 30
0.0
 11
150.4620340904
 21
462.6410397533
 31
0.0
  0
LINE
  5
1E6
  8
0
  6
CONTINUOUS
 62
     7
 10
147.7822152217
 20
460.8662637714
 30
0.0
 11
147.7822152217
 21
460.1995381359
 31
0.0
  0
LINE
  5
1E7
  8
0
  6
CONTINUOUS
 62
     7
 10
148.1050935825
 20
464.5815643314
 30
0.0
 11
148.1393304904
 21
464.5815643314
 31
0.0
  0
LINE
  5
1E8
  8
0
  6
CONTINUOUS
 62
     7
 10
148.1393304904
 20
464.6212133411
 30
0.0
 11
148.1050935825
 21
464.6212133411
 31
0.0
  0
LINE
  5
1E9
  8
0
  6
CONTINUOUS
 62
     7
 10
154.3683138927
 20
461.5898283962
 30
0.0
 11
154.3683138927
 21
460.1995381359
 31
0.0
  0
LINE
  5
1EA
  8
0
  6
CONTINUOUS
 62
     7
 10
153.5926846107
 20
460.1995381359
 30
0.0
 11
153.5926846107
 21
461.5898283962
 31
0.0
  0
LINE
  5
1EB
  8
0
  6
CONTINUOUS
 62
     7
 10
150.9322193702
 20
465.8212098125
 30
0.0
 11
149.9422935088
 21
465.8212098125
 31
0.0
  0
LINE
  5
1EC
  8
0
  6
CONTINUOUS
 62
     7
 10
149.4578925212
 20
460.306063557
 30
0.0
 11
149.4572011073
 21
460.1995381359
 31
0.0
  0
ARC
  5
1ED
  8
0
  6
CONTINUOUS
 62
     7
 10
149.4929869401
 20
459.9076090656
 30
0.0
 40
0.3999969999192202
 50
89.07264036
 51
95.033414701
  0
ARC
  5
1EE
  8
0
  6
CONTINUOUS
 62
     7
 10
149.4743095199
 20
460.4821035789
 30
0.0
 40
0.1763526481992091
 50
278.1994388402
 51
298.4228105537
  0
LINE
  5
1EF
  8
0
  6
CONTINUOUS
 62
     7
 10
149.0866330703
 20
460.3075536731
 30
0.0
 11
149.4994608005
 21
460.3075536731
 31
0.0
  0
ARC
  5
1F0
  8
0
  6
CONTINUOUS
 62
     7
 10
149.1117843509
 20
460.4821035789
 30
0.0
 40
0.1763526481992091
 50
241.5771894463
 51
261.8005611598
  0
LINE
  5
1F1
  8
0
  6
CONTINUOUS
 62
     7
 10
149.1288987239
 20
460.1995381359
 30
0.0
 11
149.1282013496
 21
460.306063557
 31
0.0
  0
ARC
  5
1F2
  8
0
  6
CONTINUOUS
 62
     7
 10
149.0908788199
 20
459.8454536874
 30
0.0
 40
0.4621194902138003
 50
85.3675292349
 51
90.526415704
  0
ARC
  5
1F3
  8
0
  6
CONTINUOUS
 62
     7
 10
155.6823138818
 20
462.4005042409
 30
0.0
 40
0.1613670443436563
 50
92.2960445363
 51
131.1128182399
  0
LINE
  5
1F4
  8
0
  6
CONTINUOUS
 62
     7
 10
155.6804803451
 20
462.0212110523
 30
0.0
 11
155.6758490642
 21
462.5617417339
 31
0.0
  0
ARC
  5
1F5
  8
0
  6
CONTINUOUS
 62
     7
 10
155.6304899295
 20
467.9099956703
 30
0.0
 40
5.888996800796927
 50
269.5136227229
 51
270.4863772771
  0
LINE
  5
1F6
  8
0
  6
CONTINUOUS
 62
     7
 10
155.6804863056
 20
462.0212110523
 30
0.0
 11
155.6804803451
 21
462.0212110523
 31
0.0
  0
LINE
  5
1F7
  8
0
  6
CONTINUOUS
 62
     7
 10
155.6804863056
 20
461.5898283962
 30
0.0
 11
155.6804863056
 21
462.0212110523
 31
0.0
  0
LINE
  5
1F8
  8
0
  6
CONTINUOUS
 62
     7
 10
155.6758490642
 20
462.6212152484
 30
0.0
 11
155.6758490642
 21
462.5617417339
 31
0.0
  0
LINE
  5
1F9
  8
0
  6
CONTINUOUS
 62
     7
 10
155.6758490642
 20
462.6212152484
 30
0.0
 11
155.6252149185
 21
462.6212152484
 31
0.0
  0
LINE
  5
1FA
  8
0
  6
CONTINUOUS
 62
     7
 10
149.4578925212
 20
460.306063557
 30
0.0
 11
149.4575706561
 21
460.3057416919
 31
0.0
  0
LINE
  5
1FB
  8
0
  6
CONTINUOUS
 62
     7
 10
149.1282013496
 20
460.306063557
 30
0.0
 11
149.1285232147
 21
460.3057416919
 31
0.0
  0
LINE
  5
1FC
  8
0
  6
CONTINUOUS
 62
     7
 10
149.2279735645
 20
460.3075059894
 30
0.0
 11
149.3581203063
 21
460.3075059894
 31
0.0
  0
ARC
  5
1FD
  8
0
  6
CONTINUOUS
 62
     7
 10
156.2268692017
 20
460.4996979824
 30
0.0
 40
0.0471381369201622
 50
178.264341505
 51
190.1852555947
  0
LINE
  5
1FE
  8
0
  6
CONTINUOUS
 62
     7
 10
156.1804739078
 20
460.4913624767
 30
0.0
 11
155.6750145992
 21
460.1995381359
 31
0.0
  0
ARC
  5
1FF
  8
0
  6
CONTINUOUS
 62
     7
 10
155.9880909761
 20
460.399197327
 30
0.0
 40
0.2170797318143358
 50
28.0046722333
 51
52.6575833575
  0
POLYLINE
  5
200
  8
0
  6
CONTINUOUS
 62
     7
 66
     1
 10
0.0
 20
0.0
 30
0.0
  0
VERTEX
  5
5CB
  8
0
  6
CONTINUOUS
 62
     7
 10
156.1197665771
 20
462.0212110523
 30
0.0
  0
VERTEX
  5
5CC
  8
0
  6
CONTINUOUS
 62
     7
 10
156.1197665771
 20
462.0212110523
 30
0.0
  0
SEQEND
  5
5CA
  8
0
  6
CONTINUOUS
 62
     7
  0
ARC
  5
201
  8
0
  6
CONTINUOUS
 62
     7
 10
156.1497596343
 20
457.931781677
 30
0.0
 40
4.089539362703764
 50
89.579783724
 51
90.420216276
  0
POLYLINE
  5
202
  8
0
  6
CONTINUOUS
 62
     7
 66
     1
 10
0.0
 20
0.0
 30
0.0
  0
VERTEX
  5
5CE
  8
0
  6
CONTINUOUS
 62
     7
 10
156.1797526916
 20
462.0212110523
 30
0.0
  0
VERTEX
  5
5CF
  8
0
  6
CONTINUOUS
 62
     7
 10
156.1797526916
 20
462.0212110523
 30
0.0
  0
SEQEND
  5
5CD
  8
0
  6
CONTINUOUS
 62
     7
  0
LINE
  5
203
  8
0
  6
CONTINUOUS
 62
     7
 10
156.1797526916
 20
460.5011257175
 30
0.0
 11
156.1797526916
 21
462.0212110523
 31
0.0
  0
LINE
  5
204
  8
0
  6
CONTINUOUS
 62
     7
 10
156.1197665771
 20
462.0212110523
 30
0.0
 11
156.1197665771
 21
460.5717810634
 31
0.0
  0
POLYLINE
  5
205
  8
0
  6
CONTINUOUS
 62
     7
 66
     1
 10
0.0
 20
0.0
 30
0.0
  0
VERTEX
  5
5D1
  8
0
  6
CONTINUOUS
 62
     7
 10
156.1163214286
 20
462.422958279
 30
0.0
  0
VERTEX
  5
5D2
  8
0
  6
CONTINUOUS
 62
     7
 10
156.1182526191
 20
462.1979745868
 30
0.0
  0
VERTEX
  5
5D3
  8
0
  6
CONTINUOUS
 62
     7
 10
156.1197665771
 20
462.0212110523
 30
0.0
  0
SEQEND
  5
5D0
  8
0
  6
CONTINUOUS
 62
     7
  0
ARC
  5
206
  8
0
  6
CONTINUOUS
 62
     7
 10
156.1463144859
 20
460.6718996793
 30
0.0
 40
1.751315449271198
 50
89.0187035626
 51
90.9812964374
  0
POLYLINE
  5
207
  8
0
  6
CONTINUOUS
 62
     7
 66
     1
 10
0.0
 20
0.0
 30
0.0
  0
VERTEX
  5
5D5
  8
0
  6
CONTINUOUS
 62
     7
 10
156.1797526916
 20
462.0212110523
 30
0.0
  0
VERTEX
  5
5D6
  8
0
  6
CONTINUOUS
 62
     7
 10
156.1778274616
 20
462.2461947444
 30
0.0
  0
VERTEX
  5
5D7
  8
0
  6
CONTINUOUS
 62
     7
 10
156.1763075431
 20
462.422958279
 30
0.0
  0
SEQEND
  5
5D4
  8
0
  6
CONTINUOUS
 62
     7
  0
LINE
  5
208
  8
0
  6
CONTINUOUS
 62
     7
 10
149.4547632774
 20
460.1995381359
 30
0.0
 11
149.4547632774
 21
460.3029283527
 31
0.0
  0
POLYLINE
  5
209
  8
0
  6
CONTINUOUS
 62
     7
 66
     1
 10
0.0
 20
0.0
 30
0.0
  0
VERTEX
  5
5D9
  8
0
  6
CONTINUOUS
 62
     7
 10
149.4547632774
 20
460.3029283527
 30
0.0
  0
VERTEX
  5
5DA
  8
0
  6
CONTINUOUS
 62
     7
 10
149.4547632774
 20
460.3029283527
 30
0.0
  0
SEQEND
  5
5D8
  8
0
  6
CONTINUOUS
 62
     7
  0
POLYLINE
  5
20A
  8
0
  6
CONTINUOUS
 62
     7
 66
     1
 10
0.0
 20
0.0
 30
0.0
  0
VERTEX
  5
5DC
  8
0
  6
CONTINUOUS
 62
     7
 10
149.1313305934
 20
460.3029283527
 30
0.0
  0
VERTEX
  5
5DD
  8
0
  6
CONTINUOUS
 62
     7
 10
149.1313305934
 20
460.3029283527
 30
0.0
  0
SEQEND
  5
5DB
  8
0
  6
CONTINUOUS
 62
     7
  0
LINE
  5
20B
  8
0
  6
CONTINUOUS
 62
     7
 10
149.1313305934
 20
460.3029283527
 30
0.0
 11
149.1313305934
 21
460.1995381359
 31
0.0
  0
LINE
  5
20C
  8
0
  6
CONTINUOUS
 62
     7
 10
155.6758490642
 20
462.5617417339
 30
0.0
 11
155.9763279994
 21
462.5617417339
 31
0.0
  0
ARC
  5
20D
  8
0
  6
CONTINUOUS
 62
     7
 10
155.9760588181
 20
462.4214715019
 30
0.0
 40
0.1402704902139009
 50
0.6073098077
 51
89.8900483932
  0
LINE
  5
20E
  8
0
  6
CONTINUOUS
 62
     7
 10
155.6804863056
 20
462.0212110523
 30
0.0
 11
156.1197665771
 21
462.0212110523
 31
0.0
  0
LINE
  5
20F
  8
0
  6
CONTINUOUS
 62
     7
 10
155.9763279994
 20
462.6212152484
 30
0.0
 11
155.9763279994
 21
462.5617417339
 31
0.0
  0
LINE
  5
210
  8
0
  6
CONTINUOUS
 62
     7
 10
155.9763279994
 20
462.6212152484
 30
0.0
 11
155.6758490642
 21
462.6212152484
 31
0.0
  0
ARC
  5
211
  8
0
  6
CONTINUOUS
 62
     7
 10
155.9763226354
 20
462.4212228107
 30
0.0
 40
0.1999924377730842
 50
0.4972000704
 51
89.9984632589
  0
POLYLINE
  5
212
  8
0
  6
CONTINUOUS
 62
     7
 66
     1
 10
0.0
 20
0.0
 30
0.0
  0
VERTEX
  5
5DF
  8
0
  6
CONTINUOUS
 62
     7
 10
156.1775830825
 20
462.422958279
 30
0.0
  0
VERTEX
  5
5E0
  8
0
  6
CONTINUOUS
 62
     7
 10
156.1799911102
 20
462.1978792194
 30
0.0
  0
VERTEX
  5
5E1
  8
0
  6
CONTINUOUS
 62
     7
 10
156.1822143634
 20
462.0212110523
 30
0.0
  0
SEQEND
  5
5DE
  8
0
  6
CONTINUOUS
 62
     7
  0
LINE
  5
213
  8
0
  6
CONTINUOUS
 62
     7
 10
156.1797526916
 20
462.0212110523
 30
0.0
 11
156.1822143634
 21
462.0212110523
 31
0.0
  0
LINE
  5
214
  8
0
  6
CONTINUOUS
 62
     7
 10
156.1763075431
 20
462.422958279
 30
0.0
 11
156.1775830825
 21
462.422958279
 31
0.0
  0
LINE
  5
215
  8
0
  6
CONTINUOUS
 62
     7
 10
156.1822143634
 20
460.4923757556
 30
0.0
 11
156.1822143634
 21
462.0212110523
 31
0.0
  0
LINE
  5
216
  8
0
  6
CONTINUOUS
 62
     7
 10
156.1804739078
 20
460.4913624767
 30
0.0
 11
156.1822143634
 21
460.4923757556
 31
0.0
  0
ARC
  5
217
  8
0
  6
CONTINUOUS
 62
     7
 10
155.9775662953
 20
462.421190651
 30
0.0
 40
0.2000245976810316
 50
0.5063324265
 51
90.0029905246
  0
LINE
  5
218
  8
0
  6
CONTINUOUS
 62
     7
 10
155.9775558551
 20
462.6212152484
 30
0.0
 11
155.9763279994
 21
462.6212152484
 31
0.0
  0
ARC
  5
219
  8
0
  6
CONTINUOUS
 62
     7
 10
149.120411762
 20
456.4894333376
 30
0.0
 40
3.813510646537714
 50
88.3334725415
 51
89.8359506841
  0
ARC
  5
21A
  8
0
  6
CONTINUOUS
 62
     7
 10
149.4081909799
 20
460.0879918736
 30
0.0
 40
0.2199242344915122
 50
77.7741829744
 51
104.0563938
  0
LINE
  5
21B
  8
0
  6
CONTINUOUS
 62
     7
 10
149.231317385
 20
460.3013309482
 30
0.0
 11
149.2317703803
 21
460.3012117389
 31
0.0
  0
LINE
  5
21C
  8
0
  6
CONTINUOUS
 62
     7
 10
149.3543234905
 20
460.3012117389
 30
0.0
 11
149.3547764858
 21
460.3013309482
 31
0.0
  0
ARC
  5
21D
  8
0
  6
CONTINUOUS
 62
     7
 10
147.0487822815
 20
458.1524849544
 30
0.0
 40
2.762173056727733
 50
88.2619241124
 51
89.728412291
  0
LINE
  5
21E
  8
0
  6
CONTINUOUS
 62
     7
 10
147.1325186332
 20
460.9194311145
 30
0.0
 11
147.1325603565
 21
460.9133752826
 31
0.0
  0
LINE
  5
21F
  8
0
  6
CONTINUOUS
 62
     7
 10
147.1325603565
 20
460.9133872035
 30
0.0
 11
147.1326497634
 21
460.8992489818
 31
0.0
  0
LINE
  5
220
  8
0
  6
CONTINUOUS
 62
     7
 10
147.0618752082
 20
460.9146269802
 30
0.0
 11
147.0405248245
 21
460.9148057941
 31
0.0
  0
LINE
  5
221
  8
0
  6
CONTINUOUS
 62
     7
 10
147.0405009826
 20
460.914817715
 30
0.0
 11
147.0405248245
 21
460.914817715
 31
0.0
  0
LINE
  5
222
  8
0
  6
CONTINUOUS
 62
     7
 10
144.7777477344
 20
460.92001524
 30
0.0
 11
147.0405009826
 21
460.914817715
 31
0.0
  0
LINE
  5
223
  8
0
  6
CONTINUOUS
 62
     7
 10
144.7777477344
 20
460.92001524
 30
0.0
 11
144.7780457576
 21
461.903301144
 31
0.0
  0
LINE
  5
224
  8
0
  6
CONTINUOUS
 62
     7
 10
144.7777477344
 20
460.1995381359
 30
0.0
 11
144.7777477344
 21
460.92001524
 31
0.0
  0
LINE
  5
225
  8
0
  6
CONTINUOUS
 62
     7
 10
144.8065248569
 20
462.0212110523
 30
0.0
 11
144.7801438411
 21
462.0212110523
 31
0.0
  0
ARC
  5
226
  8
0
  6
CONTINUOUS
 62
     7
 10
146.4583910399
 20
461.9323747779
 30
0.0
 40
1.680596782024699
 50
176.9699353262
 51
180.9912428946
  0
LINE
  5
227
  8
0
  6
CONTINUOUS
 62
     7
 10
147.1326497634
 20
460.8992489818
 30
0.0
 11
147.1371975978
 21
460.1995381359
 31
0.0
  0
LINE
  5
228
  8
0
  6
CONTINUOUS
 62
     7
 10
149.3543234905
 20
460.3012117389
 30
0.0
 11
149.2317703803
 21
460.3012117389
 31
0.0
  0
LINE
  5
229
  8
0
  6
CONTINUOUS
 62
     7
 10
147.296747311
 20
460.9189542774
 30
0.0
 11
147.1325245937
 21
460.9189542774
 31
0.0
  0
LINE
  5
22A
  8
0
  6
CONTINUOUS
 62
     7
 10
146.7088070949
 20
569.9480744842
 30
0.0
 11
146.5088394721
 21
569.9480744842
 31
0.0
  0
LINE
  5
22B
  8
0
  6
CONTINUOUS
 62
     7
 10
146.7088070949
 20
569.9480744842
 30
0.0
 11
146.7088070949
 21
569.7812112811
 31
0.0
  0
ARC
  5
22C
  8
0
  6
CONTINUOUS
 62
     7
 10
146.9188472492
 20
571.0529478553
 30
0.0
 40
1.288965003621418
 50
257.439666176
 51
260.6216845566
  0
ARC
  5
22D
  8
0
  6
CONTINUOUS
 62
     7
 10
147.9400906938
 20
576.5258013353
 30
0.0
 40
6.855654510972569
 50
257.9497513786
 51
259.0559226315
  0
LINE
  5
22E
  8
0
  6
CONTINUOUS
 62
     7
 10
146.5088394721
 20
569.8212119583
 30
0.0
 11
146.5088394721
 21
569.9480744842
 31
0.0
  0
LINE
  5
22F
  8
0
  6
CONTINUOUS
 62
     7
 10
146.6337529262
 20
569.7812112811
 30
0.0
 11
146.7088070949
 21
569.7812112811
 31
0.0
  0
LINE
  5
230
  8
0
  6
CONTINUOUS
 62
     7
 10
146.7088070949
 20
569.7812112811
 30
0.0
 11
154.7538784583
 21
569.7812112811
 31
0.0
  0
LINE
  5
231
  8
0
  6
CONTINUOUS
 62
     7
 10
154.7538784583
 20
569.2803385499
 30
0.0
 11
154.7538784583
 21
569.7812112811
 31
0.0
  0
LINE
  5
232
  8
0
  6
CONTINUOUS
 62
     7
 10
145.2173737129
 20
569.2803385499
 30
0.0
 11
154.7538784583
 21
569.2803385499
 31
0.0
  0
LINE
  5
233
  8
0
  6
CONTINUOUS
 62
     7
 10
145.2173737129
 20
569.2803385499
 30
0.0
 11
145.2173737129
 21
569.7812112811
 31
0.0
  0
LINE
  5
234
  8
0
  6
CONTINUOUS
 62
     7
 10
145.2173737129
 20
569.7812112811
 30
0.0
 11
146.6337529262
 21
569.7812112811
 31
0.0
  0
LINE
  5
235
  8
0
  6
CONTINUOUS
 62
     7
 10
154.7538784583
 20
569.9480744842
 30
0.0
 11
154.7538784583
 21
569.7812112811
 31
0.0
  0
LINE
  5
236
  8
0
  6
CONTINUOUS
 62
     7
 10
146.7088070949
 20
569.9480744842
 30
0.0
 11
154.7538784583
 21
569.9480744842
 31
0.0
  0
POLYLINE
  5
237
  8
0
  6
CONTINUOUS
 62
     7
 66
     1
 10
0.0
 20
0.0
 30
0.0
  0
VERTEX
  5
5E3
  8
0
  6
CONTINUOUS
 62
     7
 10
146.6337529262
 20
569.7812112811
 30
0.0
  0
VERTEX
  5
5E4
  8
0
  6
CONTINUOUS
 62
     7
 10
146.6355172237
 20
569.7821679357
 30
0.0
  0
VERTEX
  5
5E5
  8
0
  6
CONTINUOUS
 62
     7
 10
146.6363755306
 20
569.7834315542
 30
0.0
  0
VERTEX
  5
5E6
  8
0
  6
CONTINUOUS
 62
     7
 10
146.63713847
 20
569.7852018121
 30
0.0
  0
VERTEX
  5
5E7
  8
0
  6
CONTINUOUS
 62
     7
 10
146.6377583583
 20
569.7873803619
 30
0.0
  0
VERTEX
  5
5E8
  8
0
  6
CONTINUOUS
 62
     7
 10
146.6382053932
 20
569.7898181919
 30
0.0
  0
VERTEX
  5
5E9
  8
0
  6
CONTINUOUS
 62
     7
 10
146.6385391792
 20
569.7948309425
 30
0.0
  0
SEQEND
  5
5E2
  8
0
  6
CONTINUOUS
 62
     7
  0
ARC
  5
238
  8
0
  6
CONTINUOUS
 62
     7
 10
146.4688381473
 20
569.8212126054
 30
0.0
 40
0.0400013247877148
 50
270.0094651473
 51
359.9990730811
  0
LINE
  5
239
  8
0
  6
CONTINUOUS
 62
     7
 10
144.8218313297
 20
569.2803385499
 30
0.0
 11
145.2173737129
 21
569.2803385499
 31
0.0
  0
LINE
  5
23A
  8
0
  6
CONTINUOUS
 62
     7
 10
144.8218313297
 20
569.2803385499
 30
0.0
 11
144.8174623092
 21
569.7812112811
 31
0.0
  0
LINE
  5
23B
  8
0
  6
CONTINUOUS
 62
     7
 10
144.8174623092
 20
569.7812112811
 30
0.0
 11
145.2173737129
 21
569.7812112811
 31
0.0
  0
LINE
  5
23C
  8
0
  6
CONTINUOUS
 62
     7
 10
154.7538784583
 20
569.7812112811
 30
0.0
 11
155.0815371116
 21
569.7812112811
 31
0.0
  0
LINE
  5
23D
  8
0
  6
CONTINUOUS
 62
     7
 10
155.0779548724
 20
569.2803385499
 30
0.0
 11
155.0815371116
 21
569.7812112811
 31
0.0
  0
LINE
  5
23E
  8
0
  6
CONTINUOUS
 62
     7
 10
154.7538784583
 20
569.2803385499
 30
0.0
 11
155.0779548724
 21
569.2803385499
 31
0.0
  0
LINE
  5
23F
  8
0
  6
CONTINUOUS
 62
     7
 10
146.7088070949
 20
570.1479527
 30
0.0
 11
146.7088070949
 21
569.9480744842
 31
0.0
  0
LINE
  5
240
  8
0
  6
CONTINUOUS
 62
     7
 10
146.7088070949
 20
570.1479527
 30
0.0
 11
154.7538784583
 21
570.1479527
 31
0.0
  0
LINE
  5
241
  8
0
  6
CONTINUOUS
 62
     7
 10
154.7538784583
 20
569.9480744842
 30
0.0
 11
154.7538784583
 21
570.1479527
 31
0.0
  0
ARC
  5
242
  8
0
  6
CONTINUOUS
 62
     7
 10
146.7088996661
 20
569.9478924446
 30
0.0
 40
0.2000602768389765
 50
90.0265117235
 51
179.9478651923
  0
ARC
  5
243
  8
0
  6
CONTINUOUS
 62
     7
 10
154.7817788063
 20
584.9090982726
 30
0.0
 40
14.96104980365122
 50
269.8931510065
 51
271.1480501239
  0
LINE
  5
244
  8
0
  6
CONTINUOUS
 62
     7
 10
155.0815371116
 20
569.9510517362
 30
0.0
 11
155.0815371116
 21
569.7812112811
 31
0.0
  0
ARC
  5
245
  8
0
  6
CONTINUOUS
 62
     7
 10
154.7702561161
 20
573.7557478994
 30
0.0
 40
3.607832372545615
 50
269.73990646
 51
272.3423239084
  0
ARC
  5
246
  8
0
  6
CONTINUOUS
 62
     7
 10
154.892849089
 20
569.9634745158
 30
0.0
 40
0.1890965238427891
 50
356.2332156542
 51
82.4460112584
  0
LINE
  5
247
  8
0
  6
CONTINUOUS
 62
     7
 10
151.324215277
 20
569.1812130454
 30
0.0
 11
147.3022190173
 21
569.1812130454
 31
0.0
  0
LINE
  5
248
  8
0
  6
CONTINUOUS
 62
     7
 10
145.2173737129
 20
569.1812130454
 30
0.0
 11
145.2173737129
 21
569.2803385499
 31
0.0
  0
LINE
  5
249
  8
0
  6
CONTINUOUS
 62
     7
 10
154.7538784583
 20
569.1812130454
 30
0.0
 11
154.7538784583
 21
569.2803385499
 31
0.0
  0
LINE
  5
24A
  8
0
  6
CONTINUOUS
 62
     7
 10
145.2173737129
 20
569.1812130454
 30
0.0
 11
144.9218062003
 21
569.1812130454
 31
0.0
  0
ARC
  5
24B
  8
0
  6
CONTINUOUS
 62
     7
 10
144.9218186256
 20
569.2812040867
 30
0.0
 40
0.099991042073853
 50
180.4959666828
 51
269.9928802375
  0
LINE
  5
24C
  8
0
  6
CONTINUOUS
 62
     7
 10
154.9960461696
 20
569.1812130454
 30
0.0
 11
154.7538784583
 21
569.1812130454
 31
0.0
  0
ARC
  5
24D
  8
0
  6
CONTINUOUS
 62
     7
 10
154.9861236928
 20
569.2728159873
 30
0.0
 40
0.0921387784588752
 50
276.1822035779
 51
4.6830593383
  0
LINE
  5
24E
  8
0
  6
CONTINUOUS
 62
     7
 10
154.917707785
 20
570.150929952
 30
0.0
 11
155.3275075992
 21
570.1713683847
 31
0.0
  0
ARC
  5
24F
  8
0
  6
CONTINUOUS
 62
     7
 10
155.3026474309
 20
569.9839117417
 30
0.0
 40
0.1890979137430406
 50
356.2336098308
 51
82.4456170819
  0
LINE
  5
250
  8
0
  6
CONTINUOUS
 62
     7
 10
155.4913369258
 20
569.9714901689
 30
0.0
 11
155.0815371116
 21
569.9510517362
 31
0.0
  0
LINE
  5
251
  8
0
  6
CONTINUOUS
 62
     7
 10
155.0815371116
 20
569.7812112811
 30
0.0
 11
155.4913369258
 21
569.7812112811
 31
0.0
  0
LINE
  5
252
  8
0
  6
CONTINUOUS
 62
     7
 10
155.4877546867
 20
569.2803385499
 30
0.0
 11
155.4913369258
 21
569.7812112811
 31
0.0
  0
LINE
  5
253
  8
0
  6
CONTINUOUS
 62
     7
 10
155.0779548724
 20
569.2803385499
 30
0.0
 11
155.4877546867
 21
569.2803385499
 31
0.0
  0
LINE
  5
254
  8
0
  6
CONTINUOUS
 62
     7
 10
155.4913369258
 20
569.9714901689
 30
0.0
 11
155.4913369258
 21
569.7812112811
 31
0.0
  0
ARC
  5
255
  8
0
  6
CONTINUOUS
 62
     7
 10
155.3959235071
 20
569.2728159873
 30
0.0
 40
0.0921387784591776
 50
276.182203578
 51
4.6830593383
  0
LINE
  5
256
  8
0
  6
CONTINUOUS
 62
     7
 10
146.5088394721
 20
569.9480744842
 30
0.0
 11
146.4964834293
 21
569.9727895502
 31
0.0
  0
ARC
  5
257
  8
0
  6
CONTINUOUS
 62
     7
 10
146.6965530149
 20
569.9725981147
 30
0.0
 40
0.2000696772380874
 50
90.0292000459
 51
179.9451768699
  0
LINE
  5
258
  8
0
  6
CONTINUOUS
 62
     7
 10
146.696451052
 20
570.1726677659
 30
0.0
 11
146.7088070949
 21
570.1479527
 31
0.0
  0
ARC
  5
259
  8
0
  6
CONTINUOUS
 62
     7
 10
146.6816203053
 20
570.1540513107
 30
0.0
 40
0.0238017531876656
 50
51.4575188151
 51
86.1635217797
  0
LINE
  5
25A
  8
0
  6
CONTINUOUS
 62
     7
 10
146.6832128604
 20
570.1777997259
 30
0.0
 11
155.3649154743
 21
570.1777997259
 31
0.0
  0
LINE
  5
25B
  8
0
  6
CONTINUOUS
 62
     7
 10
155.3636458953
 20
570.1752516273
 30
0.0
 11
155.3649154743
 21
570.1777997259
 31
0.0
  0
ARC
  5
25C
  8
0
  6
CONTINUOUS
 62
     7
 10
155.3309942211
 20
570.3090181501
 30
0.0
 40
0.1376939157848426
 50
268.5490275656
 51
283.71734764
  0
ARC
  5
25D
  8
0
  6
CONTINUOUS
 62
     7
 10
146.4564874837
 20
569.8212072269
 30
0.0
 40
0.0399959458108635
 50
270.001760429
 51
0.0067777993
  0
LINE
  5
25E
  8
0
  6
CONTINUOUS
 62
     7
 10
146.4964834293
 20
569.8212119583
 30
0.0
 11
146.5088394721
 21
569.8212119583
 31
0.0
  0
LINE
  5
25F
  8
0
  6
CONTINUOUS
 62
     7
 10
146.4964834293
 20
569.9727895502
 30
0.0
 11
146.4964834293
 21
569.8212119583
 31
0.0
  0
LINE
  5
260
  8
0
  6
CONTINUOUS
 62
     7
 10
144.8109832843
 20
569.2803385499
 30
0.0
 11
144.8218313297
 21
569.2803385499
 31
0.0
  0
LINE
  5
261
  8
0
  6
CONTINUOUS
 62
     7
 10
144.8109832843
 20
569.2803385499
 30
0.0
 11
144.8066142638
 21
569.7812112811
 31
0.0
  0
LINE
  5
262
  8
0
  6
CONTINUOUS
 62
     7
 10
144.8066142638
 20
569.7812112811
 30
0.0
 11
144.8174623092
 21
569.7812112811
 31
0.0
  0
ARC
  5
263
  8
0
  6
CONTINUOUS
 62
     7
 10
144.9109705802
 20
569.2812040867
 30
0.0
 40
0.0999910420741097
 50
180.4959666828
 51
269.9928802374
  0
ARC
  5
264
  8
0
  6
CONTINUOUS
 62
     7
 10
155.3635545667
 20
569.9751926151
 30
0.0
 40
0.2000590330239468
 50
0.0517790736
 51
89.9738440106
  0
ARC
  5
265
  8
0
  6
CONTINUOUS
 62
     7
 10
155.4986164043
 20
570.5105645953
 30
0.0
 40
0.5391235739426261
 50
269.2263442187
 51
276.92446308
  0
LINE
  5
266
  8
0
  6
CONTINUOUS
 62
     7
 10
155.4913369258
 20
569.7812112811
 30
0.0
 11
155.5636135181
 21
569.7812112811
 31
0.0
  0
LINE
  5
267
  8
0
  6
CONTINUOUS
 62
     7
 10
155.5592444976
 20
569.2803385499
 30
0.0
 11
155.5636135181
 21
569.7812112811
 31
0.0
  0
LINE
  5
268
  8
0
  6
CONTINUOUS
 62
     7
 10
155.4877546867
 20
569.2803385499
 30
0.0
 11
155.5592444976
 21
569.2803385499
 31
0.0
  0
LINE
  5
269
  8
0
  6
CONTINUOUS
 62
     7
 10
155.5636135181
 20
569.9753734115
 30
0.0
 11
155.5636135181
 21
569.7812112811
 31
0.0
  0
ARC
  5
26A
  8
0
  6
CONTINUOUS
 62
     7
 10
155.4592572025
 20
569.2812040865
 30
0.0
 40
0.0999910412744649
 50
270.0037039051
 51
359.5040334488
  0
LINE
  5
26B
  8
0
  6
CONTINUOUS
 62
     7
 10
144.8065248569
 20
569.7812112811
 30
0.0
 11
144.8066142638
 21
569.7812112811
 31
0.0
  0
ARC
  5
26C
  8
0
  6
CONTINUOUS
 62
     7
 10
146.4840117304
 20
569.9605261209
 30
0.0
 40
0.0174909968583184
 50
44.517581317
 51
84.006579876
  0
ARC
  5
26D
  8
0
  6
CONTINUOUS
 62
     7
 10
146.6857954568
 20
569.9778589778
 30
0.0
 40
0.1999574268244201
 50
90.7400374519
 51
179.9820820072
  0
ARC
  5
26E
  8
0
  6
CONTINUOUS
 62
     7
 10
145.0673404837
 20
569.8112239593
 30
0.0
 40
0.6225576513518777
 50
357.2367754762
 51
0.9192638391
  0
LINE
  5
26F
  8
0
  6
CONTINUOUS
 62
     7
 10
145.6898180087
 20
569.8212119583
 30
0.0
 11
146.4964834293
 21
569.8212119583
 31
0.0
  0
ARC
  5
270
  8
0
  6
CONTINUOUS
 62
     7
 10
145.785433274
 20
570.6815349794
 30
0.0
 40
0.0957152362464913
 50
93.9478019686
 51
182.6189181711
  0
ARC
  5
271
  8
0
  6
CONTINUOUS
 62
     7
 10
145.7855045587
 20
531.9053472466
 30
0.0
 40
38.87167642531686
 50
89.87469619
 51
90.0098182078
  0
ARC
  5
272
  8
0
  6
CONTINUOUS
 62
     7
 10
145.2759407115
 20
570.1056511053
 30
0.0
 40
0.8967359881495128
 50
25.8423802584
 51
48.4676170737
  0
ARC
  5
273
  8
0
  6
CONTINUOUS
 62
     7
 10
147.6086031877
 20
571.2658001257
 30
0.0
 40
1.708576280464037
 50
206.7589020229
 51
228.9182697063
  0
LINE
  5
274
  8
0
  6
CONTINUOUS
 62
     7
 10
145.6898180087
 20
570.6771614793
 30
0.0
 11
145.6898180087
 21
569.8212119583
 31
0.0
  0
ARC
  5
275
  8
0
  6
CONTINUOUS
 62
     7
 10
147.4683925911
 20
571.7066082568
 30
0.0
 40
1.718651428773467
 50
221.5461572323
 51
242.8154520594
  0
ARC
  5
276
  8
0
  6
CONTINUOUS
 62
     7
 10
146.5007963474
 20
570.0118975631
 30
0.0
 40
0.6398654073099193
 50
119.8705325636
 51
130.7639388451
  0
ARC
  5
277
  8
0
  6
CONTINUOUS
 62
     7
 10
155.364819478
 20
569.9777300779
 30
0.0
 40
0.2000696710279588
 50
0.0548221987
 51
89.9725086836
  0
LINE
  5
278
  8
0
  6
CONTINUOUS
 62
     7
 10
155.5648890575
 20
569.9779215101
 30
0.0
 11
155.5636135181
 21
569.9753734115
 31
0.0
  0
LINE
  5
279
  8
0
  6
CONTINUOUS
 62
     7
 10
155.5636135181
 20
569.7812112811
 30
0.0
 11
155.5804995139
 21
569.7812112811
 31
0.0
  0
POLYLINE
  5
27A
  8
0
  6
CONTINUOUS
 62
     7
 66
     1
 10
0.0
 20
0.0
 30
0.0
  0
VERTEX
  5
5EB
  8
0
  6
CONTINUOUS
 62
     7
 10
155.5804995139
 20
569.7812112811
 30
0.0
  0
VERTEX
  5
5EC
  8
0
  6
CONTINUOUS
 62
     7
 10
155.5804995139
 20
569.7812112811
 30
0.0
  0
SEQEND
  5
5EA
  8
0
  6
CONTINUOUS
 62
     7
  0
LINE
  5
27B
  8
0
  6
CONTINUOUS
 62
     7
 10
155.5762079795
 20
569.2803385499
 30
0.0
 11
155.5804995139
 21
569.7812112811
 31
0.0
  0
LINE
  5
27C
  8
0
  6
CONTINUOUS
 62
     7
 10
155.5592444976
 20
569.2803385499
 30
0.0
 11
155.5762079795
 21
569.2803385499
 31
0.0
  0
ARC
  5
27D
  8
0
  6
CONTINUOUS
 62
     7
 10
155.4762172864
 20
569.2812075139
 30
0.0
 40
0.099994468901202
 50
270.0056508128
 51
359.502086541
  0
ARC
  5
27E
  8
0
  6
CONTINUOUS
 62
     7
 10
148.4745961997
 20
570.4094864869
 30
0.0
 40
7.103414751909161
 50
356.5168739864
 51
0.7021509696
  0
LINE
  5
27F
  8
0
  6
CONTINUOUS
 62
     7
 10
155.5804995139
 20
570.9589066747
 30
0.0
 11
155.5774775584
 21
570.4965355638
 31
0.0
  0
LINE
  5
280
  8
0
  6
CONTINUOUS
 62
     7
 10
155.5804995139
 20
569.7812112811
 30
0.0
 11
155.5804995139
 21
570.9589066747
 31
0.0
  0
ARC
  5
281
  8
0
  6
CONTINUOUS
 62
     7
 10
151.3853282408
 20
570.5012806791
 30
0.0
 40
3.992712671317326
 50
355.3529264479
 51
0.9396585971
  0
LINE
  5
282
  8
0
  6
CONTINUOUS
 62
     7
 10
146.1821166118
 20
570.566758776
 30
0.0
 11
148.1178310951
 21
570.566758776
 31
0.0
  0
ARC
  5
283
  8
0
  6
CONTINUOUS
 62
     7
 10
148.3986589671
 20
570.6438866069
 30
0.0
 40
0.2912267089309302
 50
195.3573130334
 51
271.5479817455
  0
LINE
  5
284
  8
0
  6
CONTINUOUS
 62
     7
 10
148.4579113563
 20
570.3527661804
 30
0.0
 11
148.406526192
 21
570.3527661804
 31
0.0
  0
ARC
  5
285
  8
0
  6
CONTINUOUS
 62
     7
 10
148.4657326372
 20
570.6439407662
 30
0.0
 40
0.2912796111779695
 50
268.4613401021
 51
344.6344969569
  0
LINE
  5
286
  8
0
  6
CONTINUOUS
 62
     7
 10
148.7466004928
 20
570.566758776
 30
0.0
 11
154.5178321441
 21
570.566758776
 31
0.0
  0
ARC
  5
287
  8
0
  6
CONTINUOUS
 62
     7
 10
154.7986577257
 20
570.6438835169
 30
0.0
 40
0.2912236819258618
 50
195.3568461492
 51
271.5484486298
  0
LINE
  5
288
  8
0
  6
CONTINUOUS
 62
     7
 10
154.8579064449
 20
570.3527661804
 30
0.0
 11
154.8065272411
 21
570.3527661804
 31
0.0
  0
ARC
  5
289
  8
0
  6
CONTINUOUS
 62
     7
 10
154.8657332786
 20
570.6439410983
 30
0.0
 40
0.2912800922846205
 50
268.46025
 51
344.6344552211
  0
LINE
  5
28A
  8
0
  6
CONTINUOUS
 62
     7
 10
155.1466015418
 20
570.566758776
 30
0.0
 11
155.3775039752
 21
570.566758776
 31
0.0
  0
ARC
  5
28B
  8
0
  6
CONTINUOUS
 62
     7
 10
147.7020439943
 20
566.8962114474
 30
0.0
 40
2.265262407640049
 50
89.4941204723
 51
90.5058795277
  0
ARC
  5
28C
  8
0
  6
CONTINUOUS
 62
     7
 10
150.8623895486
 20
566.8962114474
 30
0.0
 40
2.26526240763732
 50
89.4941204723
 51
90.5058795277
  0
POLYLINE
  5
28D
  8
0
  6
CONTINUOUS
 62
     7
 66
     1
 10
0.0
 20
0.0
 30
0.0
  0
VERTEX
  5
5EE
  8
0
  6
CONTINUOUS
 62
     7
 10
155.3775039752
 20
570.566758776
 30
0.0
  0
VERTEX
  5
5EF
  8
0
  6
CONTINUOUS
 62
     7
 10
155.4161218246
 20
570.565217996
 30
0.0
  0
VERTEX
  5
5F0
  8
0
  6
CONTINUOUS
 62
     7
 10
155.4532853206
 20
570.5610873941
 30
0.0
  0
VERTEX
  5
5F1
  8
0
  6
CONTINUOUS
 62
     7
 10
155.4875937541
 20
570.5545308832
 30
0.0
  0
VERTEX
  5
5F2
  8
0
  6
CONTINUOUS
 62
     7
 10
155.5177656253
 20
570.545789862
 30
0.0
  0
VERTEX
  5
5F3
  8
0
  6
CONTINUOUS
 62
     7
 10
155.5426505645
 20
570.5351951364
 30
0.0
  0
VERTEX
  5
5F4
  8
0
  6
CONTINUOUS
 62
     7
 10
155.5613246997
 20
570.5231460575
 30
0.0
  0
VERTEX
  5
5F5
  8
0
  6
CONTINUOUS
 62
     7
 10
155.5730787357
 20
570.5100956205
 30
0.0
  0
VERTEX
  5
5F6
  8
0
  6
CONTINUOUS
 62
     7
 10
155.5774775584
 20
570.4965355638
 30
0.0
  0
SEQEND
  5
5ED
  8
0
  6
CONTINUOUS
 62
     7
  0
LINE
  5
28E
  8
0
  6
CONTINUOUS
 62
     7
 10
150.8823898872
 20
569.1613855604
 30
0.0
 11
150.8993235668
 21
567.2208639625
 31
0.0
  0
ARC
  5
28F
  8
0
  6
CONTINUOUS
 62
     7
 10
150.8793232282
 20
568.3610815954
 30
0.0
 40
1.140393030426556
 50
268.9950887887
 51
271.0049112113
  0
LINE
  5
290
  8
0
  6
CONTINUOUS
 62
     7
 10
150.8593228896
 20
567.2208639625
 30
0.0
 11
150.8423892101
 21
569.1613855604
 31
0.0
  0
LINE
  5
291
  8
0
  6
CONTINUOUS
 62
     7
 10
147.7220443328
 20
569.1613855604
 30
0.0
 11
147.7051106532
 21
567.2208639625
 31
0.0
  0
ARC
  5
292
  8
0
  6
CONTINUOUS
 62
     7
 10
147.6851103147
 20
568.3610815954
 30
0.0
 40
1.140393030427238
 50
268.9950887887
 51
271.0049112113
  0
LINE
  5
293
  8
0
  6
CONTINUOUS
 62
     7
 10
147.6651099761
 20
567.2208639625
 30
0.0
 11
147.6820436557
 21
569.1613855604
 31
0.0
  0
ARC
  5
294
  8
0
  6
CONTINUOUS
 62
     7
 10
147.6651107231
 20
567.2212122208
 30
0.0
 40
0.0400000000000773
 50
270.0
 51
359.4999999999
  0
LINE
  5
295
  8
0
  6
CONTINUOUS
 62
     7
 10
147.6651099761
 20
567.2208639625
 30
0.0
 11
147.6651099761
 21
567.1812119726
 31
0.0
  0
LINE
  5
296
  8
0
  6
CONTINUOUS
 62
     7
 10
147.6651099761
 20
567.1812119726
 30
0.0
 11
147.6322141727
 21
567.1812119726
 31
0.0
  0
LINE
  5
297
  8
0
  6
CONTINUOUS
 62
     7
 10
150.8993235668
 20
567.2208639625
 30
0.0
 11
150.8993235668
 21
567.1812119726
 31
0.0
  0
ARC
  5
298
  8
0
  6
CONTINUOUS
 62
     7
 10
150.8993230911
 20
567.2212122208
 30
0.0
 40
0.0400000000000773
 50
180.5000000001
 51
270.0
  0
LINE
  5
299
  8
0
  6
CONTINUOUS
 62
     7
 10
150.9322193702
 20
567.1812119726
 30
0.0
 11
150.8993235668
 21
567.1812119726
 31
0.0
  0
ARC
  5
29A
  8
0
  6
CONTINUOUS
 62
     7
 10
148.4223840078
 20
512.5360913717
 30
0.0
 40
56.62538248081496
 50
89.8988203495
 51
90.1011796505
  0
ARC
  5
29B
  8
0
  6
CONTINUOUS
 62
     7
 10
150.1620468934
 20
512.5363269822
 30
0.0
 40
56.62514687066039
 50
89.8988199285
 51
90.1011800715
  0
LINE
  5
29C
  8
0
  6
CONTINUOUS
 62
     7
 10
148.5223797401
 20
569.1613855604
 30
0.0
 11
148.5393193801
 21
567.2208639625
 31
0.0
  0
ARC
  5
29D
  8
0
  6
CONTINUOUS
 62
     7
 10
148.4393206676
 20
595.7258066079
 30
0.0
 40
28.50511804848131
 50
269.7990004487
 51
270.2009995513
  0
LINE
  5
29E
  8
0
  6
CONTINUOUS
 62
     7
 10
148.339321955
 20
567.2208639625
 30
0.0
 11
148.3223882755
 21
569.1613855604
 31
0.0
  0
LINE
  5
29F
  8
0
  6
CONTINUOUS
 62
     7
 10
150.2620426257
 20
569.1613855604
 30
0.0
 11
150.2451089462
 21
567.2208639625
 31
0.0
  0
ARC
  5
2A0
  8
0
  6
CONTINUOUS
 62
     7
 10
150.1451132139
 20
595.7225541495
 30
0.0
 40
28.50186559972462
 50
269.7989835029
 51
270.2010164971
  0
LINE
  5
2A1
  8
0
  6
CONTINUOUS
 62
     7
 10
150.0451174815
 20
567.2208639625
 30
0.0
 11
150.0620511611
 21
569.1613855604
 31
0.0
  0
LINE
  5
2A2
  8
0
  6
CONTINUOUS
 62
     7
 10
148.5393193801
 20
567.2208639625
 30
0.0
 11
150.0451174815
 21
567.2208639625
 31
0.0
  0
LINE
  5
2A3
  8
0
  6
CONTINUOUS
 62
     7
 10
150.0451174815
 20
567.2208639625
 30
0.0
 11
150.0451174815
 21
567.1812119726
 31
0.0
  0
LINE
  5
2A4
  8
0
  6
CONTINUOUS
 62
     7
 10
148.5393193801
 20
567.2208639625
 30
0.0
 11
148.5393193801
 21
567.1812119726
 31
0.0
  0
LINE
  5
2A5
  8
0
  6
CONTINUOUS
 62
     7
 10
150.0451174815
 20
567.1812119726
 30
0.0
 11
148.5393193801
 21
567.1812119726
 31
0.0
  0
ARC
  5
2A6
  8
0
  6
CONTINUOUS
 62
     7
 10
150.2051107231
 20
567.2212122208
 30
0.0
 40
0.0400000000000773
 50
270.0
 51
359.4999999999
  0
LINE
  5
2A7
  8
0
  6
CONTINUOUS
 62
     7
 10
150.2051082691
 20
567.1812119726
 30
0.0
 11
150.0451174815
 21
567.1812119726
 31
0.0
  0
ARC
  5
2A8
  8
0
  6
CONTINUOUS
 62
     7
 10
148.3793230911
 20
567.2212122208
 30
0.0
 40
0.0400000000000773
 50
180.5000000001
 51
270.0
  0
LINE
  5
2A9
  8
0
  6
CONTINUOUS
 62
     7
 10
148.5393193801
 20
567.1812119726
 30
0.0
 11
148.3793226321
 21
567.1812119726
 31
0.0
  0
ARC
  5
2AA
  8
0
  6
CONTINUOUS
 62
     7
 10
148.4580633886
 20
570.648167246
 30
0.0
 40
0.2246235816958473
 50
269.9612203993
 51
348.1059821839
  0
ARC
  5
2AB
  8
0
  6
CONTINUOUS
 62
     7
 10
148.8295655678
 20
570.8140022129
 30
0.0
 40
0.2607921025156047
 50
234.4302354896
 51
251.4502932073
  0
LINE
  5
2AC
  8
0
  6
CONTINUOUS
 62
     7
 10
148.4579113563
 20
570.4235437158
 30
0.0
 11
148.4579113563
 21
570.3527661804
 31
0.0
  0
ARC
  5
2AD
  8
0
  6
CONTINUOUS
 62
     7
 10
154.8580643582
 20
570.6481673389
 30
0.0
 40
0.2246236785696186
 50
269.9597203186
 51
348.1059631939
  0
ARC
  5
2AE
  8
0
  6
CONTINUOUS
 62
     7
 10
155.2295112636
 20
570.8138938554
 30
0.0
 40
0.2606717656263968
 50
234.426277741
 51
251.4542509559
  0
LINE
  5
2AF
  8
0
  6
CONTINUOUS
 62
     7
 10
154.8579064449
 20
570.4235437158
 30
0.0
 11
154.8579064449
 21
570.3527661804
 31
0.0
  0
ARC
  5
2B0
  8
0
  6
CONTINUOUS
 62
     7
 10
148.0349672887
 20
570.8138039732
 30
0.0
 40
0.260571947571983
 50
288.5424633328
 51
305.5770079704
  0
ARC
  5
2B1
  8
0
  6
CONTINUOUS
 62
     7
 10
148.4072462465
 20
570.6492502691
 30
0.0
 40
0.225707701872808
 50
192.1171022502
 51
269.8172142373
  0
LINE
  5
2B2
  8
0
  6
CONTINUOUS
 62
     7
 10
148.406526192
 20
570.4235437158
 30
0.0
 11
148.406526192
 21
570.3527661804
 31
0.0
  0
ARC
  5
2B3
  8
0
  6
CONTINUOUS
 62
     7
 10
154.4349224224
 20
570.8138938554
 30
0.0
 40
0.2606717656264375
 50
288.5457490441
 51
305.573722259
  0
ARC
  5
2B4
  8
0
  6
CONTINUOUS
 62
     7
 10
154.8072472956
 20
570.6492502691
 30
0.0
 40
0.225707701872808
 50
192.1171022502
 51
269.8172142373
  0
LINE
  5
2B5
  8
0
  6
CONTINUOUS
 62
     7
 10
154.8065272411
 20
570.4235437158
 30
0.0
 11
154.8065272411
 21
570.3527661804
 31
0.0
  0
LINE
  5
2B6
  8
0
  6
CONTINUOUS
 62
     7
 10
154.8065272411
 20
570.4235437158
 30
0.0
 11
154.8579064449
 21
570.4235437158
 31
0.0
  0
LINE
  5
2B7
  8
0
  6
CONTINUOUS
 62
     7
 10
148.406526192
 20
570.4235437158
 30
0.0
 11
148.4579113563
 21
570.4235437158
 31
0.0
  0
ARC
  5
2B8
  8
0
  6
CONTINUOUS
 62
     7
 10
147.9220357974
 20
342.6605889399
 30
0.0
 40
226.500884912849
 50
89.9494100504
 51
90.0505899496
  0
LINE
  5
2B9
  8
0
  6
CONTINUOUS
 62
     7
 10
148.122027262
 20
569.1613855604
 30
0.0
 11
148.1050935825
 21
567.2208639625
 31
0.0
  0
ARC
  5
2BA
  8
0
  6
CONTINUOUS
 62
     7
 10
147.9051021179
 20
681.2264198634
 30
0.0
 40
114.0057313158203
 50
269.89949038
 51
270.1005096201
  0
LINE
  5
2BB
  8
0
  6
CONTINUOUS
 62
     7
 10
148.1050935825
 20
567.2208639625
 30
0.0
 11
148.1050935825
 21
567.1812119726
 31
0.0
  0
LINE
  5
2BC
  8
0
  6
CONTINUOUS
 62
     7
 10
148.1050935825
 20
567.1812119726
 30
0.0
 11
147.6651099761
 21
567.1812119726
 31
0.0
  0
LINE
  5
2BD
  8
0
  6
CONTINUOUS
 62
     7
 10
145.9666160186
 20
570.81204083
 30
0.0
 11
145.8705154498
 21
570.776930714
 31
0.0
  0
ARC
  5
2BE
  8
0
  6
CONTINUOUS
 62
     7
 10
145.3071178784
 20
570.0153085249
 30
0.0
 40
1.034272770039135
 50
32.2203511115
 51
50.3836154063
  0
LINE
  5
2BF
  8
0
  6
CONTINUOUS
 62
     7
 10
147.6949063381
 20
570.8160403016
 30
0.0
 11
145.9666160186
 21
570.81204083
 31
0.0
  0
ARC
  5
2C0
  8
0
  6
CONTINUOUS
 62
     7
 10
150.7423934778
 20
512.5371958855
 30
0.0
 40
56.62427796873834
 50
89.8988183759
 51
90.1011816241
  0
ARC
  5
2C1
  8
0
  6
CONTINUOUS
 62
     7
 10
150.8218410766
 20
571.3640394336
 30
0.0
 40
4.143345009835402
 50
269.8069968969
 51
270.5183200969
  0
ARC
  5
2C2
  8
0
  6
CONTINUOUS
 62
     7
 10
150.9448990883
 20
566.7871079942
 30
0.0
 40
0.4547424431332224
 50
107.5358474108
 51
128.7891529389
  0
LINE
  5
2C3
  8
0
  6
CONTINUOUS
 62
     7
 10
150.6600228389
 20
567.1415599826
 30
0.0
 11
150.6423977454
 21
569.1613855604
 31
0.0
  0
ARC
  5
2C4
  8
0
  6
CONTINUOUS
 62
     7
 10
148.2223925432
 20
512.5371958855
 30
0.0
 40
56.62427796874096
 50
89.8988183759
 51
90.1011816241
  0
ARC
  5
2C5
  8
0
  6
CONTINUOUS
 62
     7
 10
148.2393262227
 20
595.7208551536
 30
0.0
 40
28.50016661424927
 50
269.7989715196
 51
270.2010284804
  0
LINE
  5
2C6
  8
0
  6
CONTINUOUS
 62
     7
 10
148.1393304904
 20
567.2208639625
 30
0.0
 11
148.1223968108
 21
569.1613855604
 31
0.0
  0
ARC
  5
2C7
  8
0
  6
CONTINUOUS
 62
     7
 10
150.362038358
 20
512.5360913717
 30
0.0
 40
56.62538248081496
 50
89.8988203495
 51
90.1011796505
  0
LINE
  5
2C8
  8
0
  6
CONTINUOUS
 62
     7
 10
150.4620340904
 20
569.1613855604
 30
0.0
 11
150.4444089969
 21
567.1415599826
 31
0.0
  0
ARC
  5
2C9
  8
0
  6
CONTINUOUS
 62
     7
 10
150.1182172559
 20
566.7099471142
 30
0.0
 40
0.5410089833603574
 50
52.9198084972
 51
70.7532690013
  0
ARC
  5
2CA
  8
0
  6
CONTINUOUS
 62
     7
 10
150.2825984339
 20
571.3661733446
 30
0.0
 40
4.145478902959535
 50
269.4818406375
 51
270.1928800603
  0
LINE
  5
2CB
  8
0
  6
CONTINUOUS
 62
     7
 10
145.8939341148
 20
570.8769145254
 30
0.0
 11
145.966389521
 21
570.8769145254
 31
0.0
  0
ARC
  5
2CC
  8
0
  6
CONTINUOUS
 62
     7
 10
128.9792628947
 20
570.7851690489
 30
0.0
 40
16.98737437770032
 50
0.0906343882
 51
0.3094447692
  0
ARC
  5
2CD
  8
0
  6
CONTINUOUS
 62
     7
 10
145.9982709445
 20
570.7997417576
 30
0.0
 40
0.1297759998056827
 50
143.5115076239
 51
190.1236122209
  0
ARC
  5
2CE
  8
0
  6
CONTINUOUS
 62
     7
 10
147.6970525964
 20
570.9740974017
 30
0.0
 40
0.0932165881234816
 50
268.5414227885
 51
357.8284927293
  0
ARC
  5
2CF
  8
0
  6
CONTINUOUS
 62
     7
 10
130.7128319697
 20
570.7891827367
 30
0.0
 40
16.98209560631575
 50
0.0906145978
 51
0.3094829396
  0
ARC
  5
2D0
  8
0
  6
CONTINUOUS
 62
     7
 10
146.2055874646
 20
569.8274391532
 30
0.0
 40
0.6141725316333181
 50
180.5809411571
 51
184.3166523397
  0
LINE
  5
2D1
  8
0
  6
CONTINUOUS
 62
     7
 10
145.591446503
 20
569.8212119583
 30
0.0
 11
145.6898180087
 21
569.8212119583
 31
0.0
  0
ARC
  5
2D2
  8
0
  6
CONTINUOUS
 62
     7
 10
150.2609067167
 20
567.2166017722
 30
0.0
 40
0.035883857887799
 50
279.518679592
 51
6.5867725803
  0
LINE
  5
2D3
  8
0
  6
CONTINUOUS
 62
     7
 10
150.2668407996
 20
567.1812119726
 30
0.0
 11
150.2051082691
 21
567.1812119726
 31
0.0
  0
LINE
  5
2D4
  8
0
  6
CONTINUOUS
 62
     7
 10
148.1393304904
 20
567.2208639625
 30
0.0
 11
148.1393304904
 21
567.1812119726
 31
0.0
  0
LINE
  5
2D5
  8
0
  6
CONTINUOUS
 62
     7
 10
148.3793226321
 20
567.1812119726
 30
0.0
 11
148.1393304904
 21
567.1812119726
 31
0.0
  0
ARC
  5
2D6
  8
0
  6
CONTINUOUS
 62
     7
 10
150.8435287221
 20
567.2165991037
 30
0.0
 40
0.0358818222150824
 50
173.4085627662
 51
260.4749417179
  0
LINE
  5
2D7
  8
0
  6
CONTINUOUS
 62
     7
 10
150.8993235668
 20
567.1812119726
 30
0.0
 11
150.8375910362
 21
567.1812119726
 31
0.0
  0
LINE
  5
2D8
  8
0
  6
CONTINUOUS
 62
     7
 10
145.966389521
 20
570.8769145254
 30
0.0
 11
147.6946798404
 21
570.8809110168
 31
0.0
  0
ARC
  5
2D9
  8
0
  6
CONTINUOUS
 62
     7
 10
150.5551167839
 20
566.0651577936
 30
0.0
 40
0.6227213400299989
 50
184.0788115045
 51
187.7472812185
  0
LINE
  5
2DA
  8
0
  6
CONTINUOUS
 62
     7
 10
149.9339727004
 20
566.0208645109
 30
0.0
 11
149.832281216
 21
567.1812119726
 31
0.0
  0
ARC
  5
2DB
  8
0
  6
CONTINUOUS
 62
     7
 10
150.4643643513
 20
567.2060502888
 30
0.0
 40
0.6261327279077762
 50
182.2734863529
 51
185.9118246437
  0
LINE
  5
2DC
  8
0
  6
CONTINUOUS
 62
     7
 10
149.8415616592
 20
567.1415599826
 30
0.0
 11
149.9394622882
 21
566.0208645109
 31
0.0
  0
ARC
  5
2DD
  8
0
  6
CONTINUOUS
 62
     7
 10
149.3263772356
 20
565.9571621063
 30
0.0
 40
0.6163856569731648
 50
2.2361603143
 51
5.9320129006
  0
LINE
  5
2DE
  8
0
  6
CONTINUOUS
 62
     7
 10
149.9422935088
 20
565.9812125209
 30
0.0
 11
149.9380794605
 21
565.9812125209
 31
0.0
  0
ARC
  5
2DF
  8
0
  6
CONTINUOUS
 62
     7
 10
145.7942069146
 20
518.7850749722
 30
0.0
 40
52.09193501442846
 50
89.8903102532
 51
90.0034389113
  0
ARC
  5
2E0
  8
0
  6
CONTINUOUS
 62
     7
 10
145.996871985
 20
570.8010819898
 30
0.0
 40
0.2193518809830544
 50
159.7481971422
 51
186.296967684
  0
ARC
  5
2E1
  8
0
  6
CONTINUOUS
 62
     7
 10
145.7912987285
 20
570.6771577866
 30
0.0
 40
0.1998522255054174
 50
90.0626100345
 51
179.9989413327
  0
LINE
  5
2E2
  8
0
  6
CONTINUOUS
 62
     7
 10
145.591446503
 20
570.6771614793
 30
0.0
 11
145.6898180087
 21
570.6771614793
 31
0.0
  0
LINE
  5
2E3
  8
0
  6
CONTINUOUS
 62
     7
 10
145.591446503
 20
569.8212119583
 30
0.0
 11
145.591446503
 21
570.6771614793
 31
0.0
  0
LINE
  5
2E4
  8
0
  6
CONTINUOUS
 62
     7
 10
145.5897775729
 20
569.7812112811
 30
0.0
 11
145.5896404823
 21
570.6789615396
 31
0.0
  0
LINE
  5
2E5
  8
0
  6
CONTINUOUS
 62
     7
 10
145.591446503
 20
570.6771614793
 30
0.0
 11
145.5896404823
 21
570.6789615396
 31
0.0
  0
LINE
  5
2E6
  8
0
  6
CONTINUOUS
 62
     7
 10
145.7890001376
 20
570.8790841344
 30
0.0
 11
147.591295584
 21
570.8843233827
 31
0.0
  0
ARC
  5
2E7
  8
0
  6
CONTINUOUS
 62
     7
 10
147.5856203456
 20
577.9461667639
 30
0.0
 40
7.06184566162337
 50
270.0460456458
 51
271.3500475464
  0
LINE
  5
2E8
  8
0
  6
CONTINUOUS
 62
     7
 10
145.7890001376
 20
570.8790841344
 30
0.0
 11
145.7910803397
 21
570.8770098928
 31
0.0
  0
ARC
  5
2E9
  8
0
  6
CONTINUOUS
 62
     7
 10
145.7896644952
 20
570.6790611999
 30
0.0
 40
0.2000240378029748
 50
90.1903019092
 51
180.0285471511
  0
ARC
  5
2EA
  8
0
  6
CONTINUOUS
 62
     7
 10
150.1533798322
 20
566.2556989783
 30
0.0
 40
0.9324417910338499
 50
71.8132573184
 51
83.0108401376
  0
ARC
  5
2EB
  8
0
  6
CONTINUOUS
 62
     7
 10
150.9904568241
 20
566.079237647
 30
0.0
 40
1.112526567478746
 50
97.8976643756
 51
107.2782381684
  0
LINE
  5
2EC
  8
0
  6
CONTINUOUS
 62
     7
 10
150.4444089969
 20
567.1415599826
 30
0.0
 11
149.8415616592
 21
567.1415599826
 31
0.0
  0
LINE
  5
2ED
  8
0
  6
CONTINUOUS
 62
     7
 10
147.7822152217
 20
570.936158562
 30
0.0
 11
147.7822152217
 21
570.9688666109
 31
0.0
  0
LINE
  5
2EE
  8
0
  6
CONTINUOUS
 62
     7
 10
148.1050935825
 20
567.2208639625
 30
0.0
 11
148.1393304904
 21
567.2208639625
 31
0.0
  0
LINE
  5
2EF
  8
0
  6
CONTINUOUS
 62
     7
 10
148.1393304904
 20
567.1812119726
 30
0.0
 11
148.1050935825
 21
567.1812119726
 31
0.0
  0
LINE
  5
2F0
  8
0
  6
CONTINUOUS
 62
     7
 10
150.9322193702
 20
565.9812125209
 30
0.0
 11
149.9422935088
 21
565.9812125209
 31
0.0
  0
ARC
  5
2F1
  8
0
  6
CONTINUOUS
 62
     7
 10
155.6304899295
 20
563.8593247458
 30
0.0
 40
5.922097532100103
 50
89.516341325
 51
90.483658675
  0
LINE
  5
2F2
  8
0
  6
CONTINUOUS
 62
     7
 10
155.6804803451
 20
569.7812112811
 30
0.0
 11
155.6758490642
 21
569.2406895402
 31
0.0
  0
ARC
  5
2F3
  8
0
  6
CONTINUOUS
 62
     7
 10
155.68229052
 20
569.4019048784
 30
0.0
 40
0.1613439729651007
 50
228.8910425518
 51
267.71192974
  0
LINE
  5
2F4
  8
0
  6
CONTINUOUS
 62
     7
 10
155.5804995139
 20
570.9589066747
 30
0.0
 11
155.6804863056
 21
570.9589066747
 31
0.0
  0
LINE
  5
2F5
  8
0
  6
CONTINUOUS
 62
     7
 10
155.6804863056
 20
570.9589066747
 30
0.0
 11
155.6804863056
 21
569.7812112811
 31
0.0
  0
LINE
  5
2F6
  8
0
  6
CONTINUOUS
 62
     7
 10
155.6804863056
 20
569.7812112811
 30
0.0
 11
155.6804803451
 21
569.7812112811
 31
0.0
  0
LINE
  5
2F7
  8
0
  6
CONTINUOUS
 62
     7
 10
155.6758490642
 20
569.1812130454
 30
0.0
 11
155.6758490642
 21
569.2406895402
 31
0.0
  0
LINE
  5
2F8
  8
0
  6
CONTINUOUS
 62
     7
 10
155.6758490642
 20
569.1812130454
 30
0.0
 11
155.6252149185
 21
569.1812130454
 31
0.0
  0
ARC
  5
2F9
  8
0
  6
CONTINUOUS
 62
     7
 10
156.1497596343
 20
574.027235838
 30
0.0
 40
4.246130488008496
 50
269.5952809527
 51
270.4047190473
  0
POLYLINE
  5
2FA
  8
0
  6
CONTINUOUS
 62
     7
 66
     1
 10
0.0
 20
0.0
 30
0.0
  0
VERTEX
  5
5F8
  8
0
  6
CONTINUOUS
 62
     7
 10
156.1197665771
 20
569.7812112811
 30
0.0
  0
VERTEX
  5
5F9
  8
0
  6
CONTINUOUS
 62
     7
 10
156.1197665771
 20
569.7812112811
 30
0.0
  0
SEQEND
  5
5F7
  8
0
  6
CONTINUOUS
 62
     7
  0
POLYLINE
  5
2FB
  8
0
  6
CONTINUOUS
 62
     7
 66
     1
 10
0.0
 20
0.0
 30
0.0
  0
VERTEX
  5
5FB
  8
0
  6
CONTINUOUS
 62
     7
 10
156.1797526916
 20
569.7812112811
 30
0.0
  0
VERTEX
  5
5FC
  8
0
  6
CONTINUOUS
 62
     7
 10
156.1797526916
 20
569.7812112811
 30
0.0
  0
SEQEND
  5
5FA
  8
0
  6
CONTINUOUS
 62
     7
  0
ARC
  5
2FC
  8
0
  6
CONTINUOUS
 62
     7
 10
156.1463144859
 20
571.1616277778
 30
0.0
 40
1.782413110848312
 50
269.0358258171
 51
270.9641741829
  0
POLYLINE
  5
2FD
  8
0
  6
CONTINUOUS
 62
     7
 66
     1
 10
0.0
 20
0.0
 30
0.0
  0
VERTEX
  5
5FE
  8
0
  6
CONTINUOUS
 62
     7
 10
156.1163214286
 20
569.3794670347
 30
0.0
  0
VERTEX
  5
5FF
  8
0
  6
CONTINUOUS
 62
     7
 10
156.1182526191
 20
569.6044447664
 30
0.0
  0
VERTEX
  5
600
  8
0
  6
CONTINUOUS
 62
     7
 10
156.1197665771
 20
569.7812112811
 30
0.0
  0
SEQEND
  5
5FD
  8
0
  6
CONTINUOUS
 62
     7
  0
POLYLINE
  5
2FE
  8
0
  6
CONTINUOUS
 62
     7
 66
     1
 10
0.0
 20
0.0
 30
0.0
  0
VERTEX
  5
602
  8
0
  6
CONTINUOUS
 62
     7
 10
156.1797526916
 20
569.7812112811
 30
0.0
  0
VERTEX
  5
603
  8
0
  6
CONTINUOUS
 62
     7
 10
156.1778274616
 20
569.5562335494
 30
0.0
  0
VERTEX
  5
604
  8
0
  6
CONTINUOUS
 62
     7
 10
156.1763075431
 20
569.3794670347
 30
0.0
  0
SEQEND
  5
601
  8
0
  6
CONTINUOUS
 62
     7
  0
LINE
  5
2FF
  8
0
  6
CONTINUOUS
 62
     7
 10
155.6804863056
 20
569.7812112811
 30
0.0
 11
156.1197665771
 21
569.7812112811
 31
0.0
  0
ARC
  5
300
  8
0
  6
CONTINUOUS
 62
     7
 10
155.9760708153
 20
569.3809477338
 30
0.0
 40
0.140258429311286
 50
270.1050601459
 51
359.3951209576
  0
LINE
  5
301
  8
0
  6
CONTINUOUS
 62
     7
 10
155.6758490642
 20
569.2406895402
 30
0.0
 11
155.9763279994
 21
569.2406895402
 31
0.0
  0
LINE
  5
302
  8
0
  6
CONTINUOUS
 62
     7
 10
155.9763279994
 20
569.1812130454
 30
0.0
 11
155.9763279994
 21
569.2406895402
 31
0.0
  0
LINE
  5
303
  8
0
  6
CONTINUOUS
 62
     7
 10
155.9763279994
 20
569.1812130454
 30
0.0
 11
155.6758490642
 21
569.1812130454
 31
0.0
  0
ARC
  5
304
  8
0
  6
CONTINUOUS
 62
     7
 10
155.9763359977
 20
569.3811920306
 30
0.0
 40
0.199978985342875
 50
269.9977084177
 51
359.5057669991
  0
LINE
  5
305
  8
0
  6
CONTINUOUS
 62
     7
 10
156.1822143634
 20
570.9688666109
 30
0.0
 11
156.1822143634
 21
569.7812112811
 31
0.0
  0
LINE
  5
306
  8
0
  6
CONTINUOUS
 62
     7
 10
156.1797526916
 20
569.7812112811
 30
0.0
 11
156.1822143634
 21
569.7812112811
 31
0.0
  0
POLYLINE
  5
307
  8
0
  6
CONTINUOUS
 62
     7
 66
     1
 10
0.0
 20
0.0
 30
0.0
  0
VERTEX
  5
606
  8
0
  6
CONTINUOUS
 62
     7
 10
156.1775830825
 20
569.3794670347
 30
0.0
  0
VERTEX
  5
607
  8
0
  6
CONTINUOUS
 62
     7
 10
156.1799911102
 20
569.6045401338
 30
0.0
  0
VERTEX
  5
608
  8
0
  6
CONTINUOUS
 62
     7
 10
156.1822143634
 20
569.7812112811
 30
0.0
  0
SEQEND
  5
605
  8
0
  6
CONTINUOUS
 62
     7
  0
LINE
  5
308
  8
0
  6
CONTINUOUS
 62
     7
 10
156.1763075431
 20
569.3794670347
 30
0.0
 11
156.1775830825
 21
569.3794670347
 31
0.0
  0
ARC
  5
309
  8
0
  6
CONTINUOUS
 62
     7
 10
155.9775658254
 20
569.3812381436
 30
0.0
 40
0.2000250983611756
 50
269.9971440844
 51
359.4926717123
  0
LINE
  5
30A
  8
0
  6
CONTINUOUS
 62
     7
 10
155.9775558551
 20
569.1812130454
 30
0.0
 11
155.9763279994
 21
569.1812130454
 31
0.0
  0
ARC
  5
30B
  8
0
  6
CONTINUOUS
 62
     7
 10
147.04869888
 20
573.6213323665
 30
0.0
 40
2.733571749842689
 50
270.2761774665
 51
271.7598907879
  0
LINE
  5
30C
  8
0
  6
CONTINUOUS
 62
     7
 10
147.0618752082
 20
570.887792373
 30
0.0
 11
147.0405248245
 21
570.8876135591
 31
0.0
  0
LINE
  5
30D
  8
0
  6
CONTINUOUS
 62
     7
 10
147.0405009826
 20
570.8876135591
 30
0.0
 11
147.0405248245
 21
570.8876135591
 31
0.0
  0
LINE
  5
30E
  8
0
  6
CONTINUOUS
 62
     7
 10
144.7777477344
 20
570.8824130538
 30
0.0
 11
147.0405009826
 21
570.8876135591
 31
0.0
  0
LINE
  5
30F
  8
0
  6
CONTINUOUS
 62
     7
 10
144.7777477344
 20
570.9688666109
 30
0.0
 11
144.7777477344
 21
570.8824130538
 31
0.0
  0
LINE
  5
310
  8
0
  6
CONTINUOUS
 62
     7
 10
144.7777477344
 20
570.8824130538
 30
0.0
 11
144.7780457576
 21
569.8991182092
 31
0.0
  0
LINE
  5
311
  8
0
  6
CONTINUOUS
 62
     7
 10
144.8065248569
 20
569.7812112811
 30
0.0
 11
144.7801438411
 21
569.7812112811
 31
0.0
  0
ARC
  5
312
  8
0
  6
CONTINUOUS
 62
     7
 10
146.4586374853
 20
569.870051206
 30
0.0
 40
1.680843075913062
 50
179.0091284263
 51
183.0297448755
  0
LINE
  5
313
  8
0
  6
CONTINUOUS
 62
     7
 10
147.1422163089
 20
570.8903404716
 30
0.0
 11
147.1422163089
 21
570.9688666109
 31
0.0
  0
LINE
  5
314
  8
0
  6
CONTINUOUS
 62
     7
 10
147.1326497634
 20
570.889050031
 30
0.0
 11
147.1422163089
 21
570.8903404716
 31
0.0
  0
LINE
  5
315
  8
0
  6
CONTINUOUS
 62
     7
 10
147.296747311
 20
570.8834680561
 30
0.0
 11
147.1420970996
 21
570.8834680561
 31
0.0
  0
LINE
  5
316
  8
0
  6
CONTINUOUS
 62
     7
 10
368.2008293708
 20
451.2795361522
 30
0.0
 11
133.6008277972
 21
451.2795361522
 31
0.0
  0
LINE
  5
317
  8
0
  6
CONTINUOUS
 62
     7
 10
133.6008277972
 20
451.2795361522
 30
0.0
 11
133.6008277972
 21
451.4795335773
 31
0.0
  0
LINE
  5
318
  8
0
  6
CONTINUOUS
 62
     7
 10
133.6008277972
 20
451.4795335773
 30
0.0
 11
368.2008293708
 21
451.4795335773
 31
0.0
  0
LINE
  5
319
  8
0
  6
CONTINUOUS
 62
     7
 10
368.2008293708
 20
451.4795335773
 30
0.0
 11
368.2008293708
 21
451.2795361522
 31
0.0
  0
LINE
  5
31A
  8
0
  6
CONTINUOUS
 62
     7
 10
133.6008277972
 20
459.9895390514
 30
0.0
 11
133.6008277972
 21
451.4795335773
 31
0.0
  0
LINE
  5
31B
  8
0
  6
CONTINUOUS
 62
     7
 10
368.2008293708
 20
459.9895390514
 30
0.0
 11
133.6008277972
 21
459.9895390514
 31
0.0
  0
LINE
  5
31C
  8
0
  6
CONTINUOUS
 62
     7
 10
368.2008293708
 20
459.9895390514
 30
0.0
 11
368.2008293708
 21
451.4795335773
 31
0.0
  0
LINE
  5
31D
  8
0
  6
CONTINUOUS
 62
     7
 10
133.6008277972
 20
459.9895390514
 30
0.0
 11
133.6008277972
 21
460.0395354274
 31
0.0
  0
LINE
  5
31E
  8
0
  6
CONTINUOUS
 62
     7
 10
133.6008277972
 20
460.0395354274
 30
0.0
 11
368.2008293708
 21
460.0395354274
 31
0.0
  0
LINE
  5
31F
  8
0
  6
CONTINUOUS
 62
     7
 10
368.2008293708
 20
460.0395354274
 30
0.0
 11
368.2008293708
 21
459.9895390514
 31
0.0
  0
LINE
  5
320
  8
0
  6
CONTINUOUS
 62
     7
 10
368.2008293708
 20
571.1395385507
 30
0.0
 11
133.6008277972
 21
571.1395385507
 31
0.0
  0
LINE
  5
321
  8
0
  6
CONTINUOUS
 62
     7
 10
368.2008293708
 20
571.1395385507
 30
0.0
 11
368.2008293708
 21
571.0395398382
 31
0.0
  0
LINE
  5
322
  8
0
  6
CONTINUOUS
 62
     7
 10
368.2008293708
 20
571.0395398382
 30
0.0
 11
133.6008277972
 21
571.0395398382
 31
0.0
  0
LINE
  5
323
  8
0
  6
CONTINUOUS
 62
     7
 10
133.6008277972
 20
571.1395385507
 30
0.0
 11
133.6008277972
 21
571.0395398382
 31
0.0
  0
LINE
  5
324
  8
0
  6
CONTINUOUS
 62
     7
 10
368.2008293708
 20
588.0395385269
 30
0.0
 11
133.6008277972
 21
588.0395385269
 31
0.0
  0
LINE
  5
325
  8
0
  6
CONTINUOUS
 62
     7
 10
133.6008277972
 20
588.0395385269
 30
0.0
 11
133.6008277972
 21
571.1395385507
 31
0.0
  0
LINE
  5
326
  8
0
  6
CONTINUOUS
 62
     7
 10
368.2008293708
 20
588.0395385269
 30
0.0
 11
368.2008293708
 21
571.1395385507
 31
0.0
  0
LINE
  5
327
  8
0
  6
CONTINUOUS
 62
     7
 10
368.2008293708
 20
588.4395393375
 30
0.0
 11
133.6008277972
 21
588.4395393375
 31
0.0
  0
LINE
  5
328
  8
0
  6
CONTINUOUS
 62
     7
 10
133.6008277972
 20
588.4395393375
 30
0.0
 11
133.6008277972
 21
588.0395385269
 31
0.0
  0
LINE
  5
329
  8
0
  6
CONTINUOUS
 62
     7
 10
368.2008293708
 20
588.4395393375
 30
0.0
 11
368.2008293708
 21
588.0395385269
 31
0.0
  0
LINE
  5
32A
  8
0
  6
CONTINUOUS
 62
     7
 10
368.5008314689
 20
587.6995387319
 30
0.0
 11
388.8008383354
 21
587.6995387319
 31
0.0
  0
LINE
  5
32B
  8
0
  6
CONTINUOUS
 62
     7
 10
388.8008383354
 20
587.6995387319
 30
0.0
 11
388.8008383354
 21
587.6395392064
 31
0.0
  0
LINE
  5
32C
  8
0
  6
CONTINUOUS
 62
     7
 10
368.5008314689
 20
587.6995387319
 30
0.0
 11
368.5008314689
 21
587.6395392064
 31
0.0
  0
LINE
  5
32D
  8
0
  6
CONTINUOUS
 62
     7
 10
368.4008387168
 20
587.6995387319
 30
0.0
 11
368.5008314689
 21
587.6995387319
 31
0.0
  0
ARC
  5
32E
  8
0
  6
CONTINUOUS
 62
     7
 10
368.4608277502
 20
587.6995386716
 30
0.0
 40
0.0600000000000023
 50
180.0
 51
270.0
  0
LINE
  5
32F
  8
0
  6
CONTINUOUS
 62
     7
 10
388.8008383354
 20
588.3795383218
 30
0.0
 11
368.5008314689
 21
588.3795383218
 31
0.0
  0
LINE
  5
330
  8
0
  6
CONTINUOUS
 62
     7
 10
388.8008383354
 20
587.6995387319
 30
0.0
 11
388.8008383354
 21
588.3795383218
 31
0.0
  0
LINE
  5
331
  8
0
  6
CONTINUOUS
 62
     7
 10
368.5008314689
 20
588.3795383218
 30
0.0
 11
368.5008314689
 21
587.6995387319
 31
0.0
  0
LINE
  5
332
  8
0
  6
CONTINUOUS
 62
     7
 10
368.5008314689
 20
588.3795383218
 30
0.0
 11
368.4008387168
 21
588.3795383218
 31
0.0
  0
LINE
  5
333
  8
0
  6
CONTINUOUS
 62
     7
 10
368.4008387168
 20
587.6995387319
 30
0.0
 11
368.4008387168
 21
588.3795383218
 31
0.0
  0
LINE
  5
334
  8
0
  6
CONTINUOUS
 62
     7
 10
389.2008331855
 20
588.3795383218
 30
0.0
 11
388.8008383354
 21
588.3795383218
 31
0.0
  0
LINE
  5
335
  8
0
  6
CONTINUOUS
 62
     7
 10
389.2008331855
 20
587.6995387319
 30
0.0
 11
389.2008331855
 21
588.3795383218
 31
0.0
  0
LINE
  5
336
  8
0
  6
CONTINUOUS
 62
     7
 10
388.8008383354
 20
587.6995387319
 30
0.0
 11
389.2008331855
 21
587.6995387319
 31
0.0
  0
LINE
  5
337
  8
0
  6
CONTINUOUS
 62
     7
 10
368.5008314689
 20
588.3795383218
 30
0.0
 11
368.5008314689
 21
588.4395393375
 31
0.0
  0
LINE
  5
338
  8
0
  6
CONTINUOUS
 62
     7
 10
368.5008314689
 20
588.4395393375
 30
0.0
 11
388.8008383354
 21
588.4395393375
 31
0.0
  0
LINE
  5
339
  8
0
  6
CONTINUOUS
 62
     7
 10
388.8008383354
 20
588.3795383218
 30
0.0
 11
388.8008383354
 21
588.4395393375
 31
0.0
  0
ARC
  5
33A
  8
0
  6
CONTINUOUS
 62
     7
 10
389.1408277502
 20
587.6995386716
 30
0.0
 40
0.0600000000000023
 50
270.0
 51
0.0
  0
ARC
  5
33B
  8
0
  6
CONTINUOUS
 62
     7
 10
368.4608277502
 20
588.3795386716
 30
0.0
 40
0.0600000000000023
 50
90.0
 51
180.0
  0
LINE
  5
33C
  8
0
  6
CONTINUOUS
 62
     7
 10
368.4608248313
 20
588.4395393375
 30
0.0
 11
368.5008314689
 21
588.4395393375
 31
0.0
  0
LINE
  5
33D
  8
0
  6
CONTINUOUS
 62
     7
 10
388.8008383354
 20
588.4395393375
 30
0.0
 11
389.1408232291
 21
588.4395393375
 31
0.0
  0
ARC
  5
33E
  8
0
  6
CONTINUOUS
 62
     7
 10
389.1408277502
 20
588.3795386716
 30
0.0
 40
0.0600000000000591
 50
0.0
 51
90.0
  0
LINE
  5
33F
  8
0
  6
CONTINUOUS
 62
     7
 10
368.4008387168
 20
587.6395392064
 30
0.0
 11
368.4008387168
 21
587.6995387319
 31
0.0
  0
POLYLINE
  5
340
  8
0
  6
CONTINUOUS
 62
     7
 66
     1
 10
0.0
 20
0.0
 30
0.0
  0
VERTEX
  5
60A
  8
0
  6
CONTINUOUS
 62
     7
 10
368.4008387168
 20
588.1395387295
 30
0.0
  0
VERTEX
  5
60B
  8
0
  6
CONTINUOUS
 62
     7
 10
368.3989075263
 20
588.108323777
 30
0.0
  0
VERTEX
  5
60C
  8
0
  6
CONTINUOUS
 62
     7
 10
368.3932093223
 20
588.0783098582
 30
0.0
  0
VERTEX
  5
60D
  8
0
  6
CONTINUOUS
 62
     7
 10
368.3839825233
 20
588.0506473425
 30
0.0
  0
VERTEX
  5
60E
  8
0
  6
CONTINUOUS
 62
     7
 10
368.3715370734
 20
588.0264016632
 30
0.0
  0
VERTEX
  5
60F
  8
0
  6
CONTINUOUS
 62
     7
 10
368.3563736518
 20
588.0065041426
 30
0.0
  0
VERTEX
  5
610
  8
0
  6
CONTINUOUS
 62
     7
 10
368.3390883048
 20
587.9917177204
 30
0.0
  0
VERTEX
  5
611
  8
0
  6
CONTINUOUS
 62
     7
 10
368.3203486045
 20
587.9826131109
 30
0.0
  0
VERTEX
  5
612
  8
0
  6
CONTINUOUS
 62
     7
 10
368.3008221229
 20
587.9795390013
 30
0.0
  0
SEQEND
  5
609
  8
0
  6
CONTINUOUS
 62
     7
  0
LINE
  5
341
  8
0
  6
CONTINUOUS
 62
     7
 10
368.3008221229
 20
587.9795390013
 30
0.0
 11
368.3008221229
 21
588.0395385269
 31
0.0
  0
ARC
  5
342
  8
0
  6
CONTINUOUS
 62
     7
 10
368.3008064128
 20
588.1395708348
 30
0.0
 40
0.1000323091439677
 50
270.0089982934
 51
359.9816109853
  0
LINE
  5
343
  8
0
  6
CONTINUOUS
 62
     7
 10
368.2008293708
 20
588.0395385269
 30
0.0
 11
368.3008221229
 21
588.0395385269
 31
0.0
  0
LINE
  5
344
  8
0
  6
CONTINUOUS
 62
     7
 10
389.2008331855
 20
587.6995387319
 30
0.0
 11
389.2008331855
 21
587.6395392064
 31
0.0
  0
LINE
  5
345
  8
0
  6
CONTINUOUS
 62
     7
 10
113.0008277734
 20
588.3795383218
 30
0.0
 11
112.6008269628
 21
588.3795383218
 31
0.0
  0
LINE
  5
346
  8
0
  6
CONTINUOUS
 62
     7
 10
113.0008277734
 20
587.6995387319
 30
0.0
 11
113.0008277734
 21
588.3795383218
 31
0.0
  0
LINE
  5
347
  8
0
  6
CONTINUOUS
 62
     7
 10
112.6008269628
 20
587.6995387319
 30
0.0
 11
113.0008277734
 21
587.6995387319
 31
0.0
  0
LINE
  5
348
  8
0
  6
CONTINUOUS
 62
     7
 10
112.6008269628
 20
587.6995387319
 30
0.0
 11
112.6008269628
 21
588.3795383218
 31
0.0
  0
LINE
  5
349
  8
0
  6
CONTINUOUS
 62
     7
 10
133.3008256992
 20
588.3795383218
 30
0.0
 11
113.0008277734
 21
588.3795383218
 31
0.0
  0
LINE
  5
34A
  8
0
  6
CONTINUOUS
 62
     7
 10
133.3008256992
 20
587.6995387319
 30
0.0
 11
133.3008256992
 21
588.3795383218
 31
0.0
  0
LINE
  5
34B
  8
0
  6
CONTINUOUS
 62
     7
 10
113.0008277734
 20
587.6995387319
 30
0.0
 11
133.3008256992
 21
587.6995387319
 31
0.0
  0
LINE
  5
34C
  8
0
  6
CONTINUOUS
 62
     7
 10
113.0008277734
 20
587.6395392064
 30
0.0
 11
113.0008277734
 21
587.6995387319
 31
0.0
  0
LINE
  5
34D
  8
0
  6
CONTINUOUS
 62
     7
 10
133.3008256992
 20
587.6395392064
 30
0.0
 11
133.3008256992
 21
587.6995387319
 31
0.0
  0
LINE
  5
34E
  8
0
  6
CONTINUOUS
 62
     7
 10
133.4008303722
 20
588.3795383218
 30
0.0
 11
133.3008256992
 21
588.3795383218
 31
0.0
  0
LINE
  5
34F
  8
0
  6
CONTINUOUS
 62
     7
 10
133.4008303722
 20
588.3795383218
 30
0.0
 11
133.4008303722
 21
587.6995387319
 31
0.0
  0
LINE
  5
350
  8
0
  6
CONTINUOUS
 62
     7
 10
133.3008256992
 20
587.6995387319
 30
0.0
 11
133.4008303722
 21
587.6995387319
 31
0.0
  0
ARC
  5
351
  8
0
  6
CONTINUOUS
 62
     7
 10
133.3408277502
 20
587.6995386716
 30
0.0
 40
0.0600000000000591
 50
270.0
 51
0.0
  0
ARC
  5
352
  8
0
  6
CONTINUOUS
 62
     7
 10
112.6608277502
 20
587.6995386716
 30
0.0
 40
0.0599999999999739
 50
180.0
 51
270.0
  0
LINE
  5
353
  8
0
  6
CONTINUOUS
 62
     7
 10
112.6608279784
 20
588.4395393375
 30
0.0
 11
113.0008277734
 21
588.4395393375
 31
0.0
  0
LINE
  5
354
  8
0
  6
CONTINUOUS
 62
     7
 10
113.0008277734
 20
588.3795383218
 30
0.0
 11
113.0008277734
 21
588.4395393375
 31
0.0
  0
ARC
  5
355
  8
0
  6
CONTINUOUS
 62
     7
 10
112.6608277502
 20
588.3795386716
 30
0.0
 40
0.0600000000000591
 50
90.0
 51
180.0
  0
LINE
  5
356
  8
0
  6
CONTINUOUS
 62
     7
 10
113.0008277734
 20
588.4395393375
 30
0.0
 11
133.3008256992
 21
588.4395393375
 31
0.0
  0
LINE
  5
357
  8
0
  6
CONTINUOUS
 62
     7
 10
133.3008256992
 20
588.3795383218
 30
0.0
 11
133.3008256992
 21
588.4395393375
 31
0.0
  0
LINE
  5
358
  8
0
  6
CONTINUOUS
 62
     7
 10
133.3008256992
 20
588.4395393375
 30
0.0
 11
133.3408263763
 21
588.4395393375
 31
0.0
  0
ARC
  5
359
  8
0
  6
CONTINUOUS
 62
     7
 10
133.3408277502
 20
588.3795386716
 30
0.0
 40
0.0600000000000023
 50
0.0
 51
90.0
  0
LINE
  5
35A
  8
0
  6
CONTINUOUS
 62
     7
 10
133.4008303722
 20
587.6995387319
 30
0.0
 11
133.4008303722
 21
587.6395392064
 31
0.0
  0
LINE
  5
35B
  8
0
  6
CONTINUOUS
 62
     7
 10
133.5008290847
 20
588.0395385269
 30
0.0
 11
133.5008290847
 21
587.9795390013
 31
0.0
  0
POLYLINE
  5
35C
  8
0
  6
CONTINUOUS
 62
     7
 66
     1
 10
0.0
 20
0.0
 30
0.0
  0
VERTEX
  5
614
  8
0
  6
CONTINUOUS
 62
     7
 10
133.5008290847
 20
587.9795390013
 30
0.0
  0
VERTEX
  5
615
  8
0
  6
CONTINUOUS
 62
     7
 10
133.4834602912
 20
587.9819693807
 30
0.0
  0
VERTEX
  5
616
  8
0
  6
CONTINUOUS
 62
     7
 10
133.4666279395
 20
587.9891875032
 30
0.0
  0
VERTEX
  5
617
  8
0
  6
CONTINUOUS
 62
     7
 10
133.4508267482
 20
588.0009743217
 30
0.0
  0
VERTEX
  5
618
  8
0
  6
CONTINUOUS
 62
     7
 10
133.4365514358
 20
588.0169722084
 30
0.0
  0
VERTEX
  5
619
  8
0
  6
CONTINUOUS
 62
     7
 10
133.4242251952
 20
588.0366924051
 30
0.0
  0
VERTEX
  5
61A
  8
0
  6
CONTINUOUS
 62
     7
 10
133.4142235359
 20
588.0595388654
 30
0.0
  0
VERTEX
  5
61B
  8
0
  6
CONTINUOUS
 62
     7
 10
133.4068564018
 20
588.0848157051
 30
0.0
  0
VERTEX
  5
61C
  8
0
  6
CONTINUOUS
 62
     7
 10
133.4023443301
 20
588.1117555145
 30
0.0
  0
VERTEX
  5
61D
  8
0
  6
CONTINUOUS
 62
     7
 10
133.4008303722
 20
588.1395387295
 30
0.0
  0
SEQEND
  5
613
  8
0
  6
CONTINUOUS
 62
     7
  0
ARC
  5
35D
  8
0
  6
CONTINUOUS
 62
     7
 10
133.5008249159
 20
588.1395330707
 30
0.0
 40
0.0999945438778641
 50
179.9967575323
 51
270.0023886894
  0
LINE
  5
35E
  8
0
  6
CONTINUOUS
 62
     7
 10
133.5008290847
 20
588.0395385269
 30
0.0
 11
133.6008277972
 21
588.0395385269
 31
0.0
  0
LINE
  5
35F
  8
0
  6
CONTINUOUS
 62
     7
 10
112.6008269628
 20
587.6395392064
 30
0.0
 11
112.6008269628
 21
587.6995387319
 31
0.0
  0
ARC
  5
360
  8
0
  6
CONTINUOUS
 62
     7
 10
368.6171819352
 20
452.0211048926
 30
0.0
 40
0.2163488799013617
 50
164.3305943284
 51
180.414504265
  0
ARC
  5
361
  8
0
  6
CONTINUOUS
 62
     7
 10
368.3673416645
 20
452.0589002435
 30
0.0
 40
0.0335030556838998
 50
1.0846710784
 51
38.0238531931
  0
LINE
  5
362
  8
0
  6
CONTINUOUS
 62
     7
 10
368.3408287605
 20
451.6971143726
 30
0.0
 11
368.3408287605
 21
452.0795377735
 31
0.0
  0
LINE
  5
363
  8
0
  6
CONTINUOUS
 62
     7
 10
368.2008293708
 20
451.6971143726
 30
0.0
 11
368.3408287605
 21
451.6971143726
 31
0.0
  0
ARC
  5
364
  8
0
  6
CONTINUOUS
 62
     7
 10
133.3408277502
 20
452.0195386716
 30
0.0
 40
0.1199999999999747
 50
0.0
 51
30.0
  0
LINE
  5
365
  8
0
  6
CONTINUOUS
 62
     7
 10
133.6008277972
 20
451.8619688991
 30
0.0
 11
133.4608284076
 21
451.8619688991
 31
0.0
  0
LINE
  5
366
  8
0
  6
CONTINUOUS
 62
     7
 10
133.4608284076
 20
451.9043954853
 30
0.0
 11
133.6008277972
 21
451.9043954853
 31
0.0
  0
LINE
  5
367
  8
0
  6
CONTINUOUS
 62
     7
 10
133.4608284076
 20
451.6971143726
 30
0.0
 11
133.6008277972
 21
451.6971143726
 31
0.0
  0
LINE
  5
368
  8
0
  6
CONTINUOUS
 62
     7
 10
145.6898180087
 20
461.9812163356
 30
0.0
 11
146.4306143363
 21
461.9812163356
 31
0.0
  0
LINE
  5
369
  8
0
  6
CONTINUOUS
 62
     7
 10
147.6820436557
 20
462.6410397533
 30
0.0
 11
147.6322141727
 21
462.6410397533
 31
0.0
  0
LINE
  5
36A
  8
0
  6
CONTINUOUS
 62
     7
 10
150.9322193702
 20
462.6410397533
 30
0.0
 11
150.8823898872
 21
462.6410397533
 31
0.0
  0
LINE
  5
36B
  8
0
  6
CONTINUOUS
 62
     7
 10
147.6322141727
 20
464.5815643314
 30
0.0
 11
147.6651099761
 21
464.5815643314
 31
0.0
  0
LINE
  5
36C
  8
0
  6
CONTINUOUS
 62
     7
 10
150.8993235668
 20
464.5815643314
 30
0.0
 11
150.9322193702
 21
464.5815643314
 31
0.0
  0
LINE
  5
36D
  8
0
  6
CONTINUOUS
 62
     7
 10
149.5574143966
 20
460.1995381359
 30
0.0
 11
149.5582488616
 21
460.3270086292
 31
0.0
  0
LINE
  5
36E
  8
0
  6
CONTINUOUS
 62
     7
 10
149.0278450092
 20
460.3270086292
 30
0.0
 11
149.0286794742
 21
460.1995381359
 31
0.0
  0
LINE
  5
36F
  8
0
  6
CONTINUOUS
 62
     7
 10
147.886278971
 20
460.1995381359
 30
0.0
 11
147.8901890357
 21
460.7967409137
 31
0.0
  0
LINE
  5
370
  8
0
  6
CONTINUOUS
 62
     7
 10
147.7902022441
 20
460.8318599704
 30
0.0
 11
147.7860656818
 21
460.1995381359
 31
0.0
  0
LINE
  5
371
  8
0
  6
CONTINUOUS
 62
     7
 10
150.9322193702
 20
464.6608623508
 30
0.0
 11
150.6600228389
 21
464.6608623508
 31
0.0
  0
LINE
  5
372
  8
0
  6
CONTINUOUS
 62
     7
 10
149.9394622882
 20
465.7815608028
 30
0.0
 11
150.9322193702
 21
465.7815608028
 31
0.0
  0
LINE
  5
373
  8
0
  6
CONTINUOUS
 62
     7
 10
155.4750112136
 20
460.1995381359
 30
0.0
 11
156.1197665771
 21
460.5717810634
 31
0.0
  0
LINE
  5
374
  8
0
  6
CONTINUOUS
 62
     7
 10
149.231317385
 20
460.1995381359
 30
0.0
 11
149.231317385
 21
460.3013309482
 31
0.0
  0
LINE
  5
375
  8
0
  6
CONTINUOUS
 62
     7
 10
149.3547764858
 20
460.3013309482
 30
0.0
 11
149.3547764858
 21
460.1995381359
 31
0.0
  0
LINE
  5
376
  8
0
  6
CONTINUOUS
 62
     7
 10
149.2317703803
 20
460.3012117389
 30
0.0
 11
149.2312220176
 21
460.3075059894
 31
0.0
  0
LINE
  5
377
  8
0
  6
CONTINUOUS
 62
     7
 10
149.3548718532
 20
460.3075059894
 30
0.0
 11
149.3543234905
 21
460.3012117389
 31
0.0
  0
LINE
  5
378
  8
0
  6
CONTINUOUS
 62
     7
 10
147.1326497634
 20
460.1995381359
 30
0.0
 11
147.1326497634
 21
460.8992489818
 31
0.0
  0
LINE
  5
379
  8
0
  6
CONTINUOUS
 62
     7
 10
147.0618752082
 20
460.9146269802
 30
0.0
 11
147.0618752082
 21
460.1995381359
 31
0.0
  0
LINE
  5
37A
  8
0
  6
CONTINUOUS
 62
     7
 10
147.0406499942
 20
460.9197052959
 30
0.0
 11
147.0405009826
 21
460.914817715
 31
0.0
  0
LINE
  5
37B
  8
0
  6
CONTINUOUS
 62
     7
 10
147.0405248245
 20
460.914817715
 30
0.0
 11
147.0405248245
 21
460.1995381359
 31
0.0
  0
LINE
  5
37C
  8
0
  6
CONTINUOUS
 62
     7
 10
144.7780457576
 20
461.903301144
 30
0.0
 11
145.5897596916
 21
461.903301144
 31
0.0
  0
LINE
  5
37D
  8
0
  6
CONTINUOUS
 62
     7
 10
147.6322141727
 20
567.2208639625
 30
0.0
 11
147.6651099761
 21
567.2208639625
 31
0.0
  0
LINE
  5
37E
  8
0
  6
CONTINUOUS
 62
     7
 10
150.8993235668
 20
567.2208639625
 30
0.0
 11
150.9322193702
 21
567.2208639625
 31
0.0
  0
LINE
  5
37F
  8
0
  6
CONTINUOUS
 62
     7
 10
148.4579113563
 20
570.4235437158
 30
0.0
 11
148.4579113563
 21
570.9688666109
 31
0.0
  0
ARC
  5
380
  8
0
  6
CONTINUOUS
 62
     7
 10
146.3869884109
 20
571.2516408136
 30
0.0
 40
2.381241808360109
 50
344.1648925778
 51
353.1799908569
  0
LINE
  5
381
  8
0
  6
CONTINUOUS
 62
     7
 10
148.406526192
 20
570.9688666109
 30
0.0
 11
148.406526192
 21
570.4235437158
 31
0.0
  0
ARC
  5
382
  8
0
  6
CONTINUOUS
 62
     7
 10
150.4782742868
 20
571.2518073015
 30
0.0
 40
2.382086808873623
 50
186.8216114166
 51
195.8335051487
  0
LINE
  5
383
  8
0
  6
CONTINUOUS
 62
     7
 10
154.8579064449
 20
570.4235437158
 30
0.0
 11
154.8579064449
 21
570.9688666109
 31
0.0
  0
LINE
  5
384
  8
0
  6
CONTINUOUS
 62
     7
 10
154.8065272411
 20
570.9688666109
 30
0.0
 11
154.8065272411
 21
570.4235437158
 31
0.0
  0
ARC
  5
385
  8
0
  6
CONTINUOUS
 62
     7
 10
152.7861583501
 20
571.2518073015
 30
0.0
 40
2.382086808873623
 50
344.1664948513
 51
353.1783885834
  0
ARC
  5
386
  8
0
  6
CONTINUOUS
 62
     7
 10
156.8782753359
 20
571.2518073015
 30
0.0
 40
2.382086808873623
 50
186.8216114166
 51
195.8335051487
  0
ARC
  5
387
  8
0
  6
CONTINUOUS
 62
     7
 10
149.9160011559
 20
571.2366606948
 30
0.0
 40
1.918901807957218
 50
188.0221493748
 51
200.4327006861
  0
ARC
  5
388
  8
0
  6
CONTINUOUS
 62
     7
 10
146.9488689509
 20
571.2365495091
 30
0.0
 40
1.918452064255078
 50
339.5658388915
 51
351.9793110476
  0
ARC
  5
389
  8
0
  6
CONTINUOUS
 62
     7
 10
156.316002205
 20
571.2366606948
 30
0.0
 40
1.918901807957218
 50
188.0221493748
 51
200.4327006861
  0
ARC
  5
38A
  8
0
  6
CONTINUOUS
 62
     7
 10
153.348431481
 20
571.2366606948
 30
0.0
 40
1.91890180795719
 50
339.5672993139
 51
351.9778506252
  0
LINE
  5
38B
  8
0
  6
CONTINUOUS
 62
     7
 10
155.3775039752
 20
570.566758776
 30
0.0
 11
155.3801385005
 21
570.9688666109
 31
0.0
  0
ARC
  5
38C
  8
0
  6
CONTINUOUS
 62
     7
 10
147.7014002356
 20
570.999815349
 30
0.0
 40
0.1838897461609199
 50
267.9762313771
 51
350.3109781674
  0
LINE
  5
38D
  8
0
  6
CONTINUOUS
 62
     7
 10
150.9322193702
 20
567.1415599826
 30
0.0
 11
150.6600228389
 21
567.1415599826
 31
0.0
  0
LINE
  5
38E
  8
0
  6
CONTINUOUS
 62
     7
 10
149.9394622882
 20
566.0208645109
 30
0.0
 11
150.9322193702
 21
566.0208645109
 31
0.0
  0
LINE
  5
38F
  8
0
  6
CONTINUOUS
 62
     7
 10
156.1197665771
 20
569.7812112811
 30
0.0
 11
156.1197665771
 21
570.9688666109
 31
0.0
  0
LINE
  5
390
  8
0
  6
CONTINUOUS
 62
     7
 10
156.1797526916
 20
570.9688666109
 30
0.0
 11
156.1797526916
 21
569.7812112811
 31
0.0
  0
LINE
  5
391
  8
0
  6
CONTINUOUS
 62
     7
 10
147.1326497634
 20
570.9688666109
 30
0.0
 11
147.1326497634
 21
570.889050031
 31
0.0
  0
LINE
  5
392
  8
0
  6
CONTINUOUS
 62
     7
 10
147.0618752082
 20
570.887792373
 30
0.0
 11
147.0618752082
 21
570.9688666109
 31
0.0
  0
LINE
  5
393
  8
0
  6
CONTINUOUS
 62
     7
 10
147.0405248245
 20
570.8876135591
 30
0.0
 11
147.0405248245
 21
570.9688666109
 31
0.0
  0
LINE
  5
394
  8
0
  6
CONTINUOUS
 62
     7
 10
147.0406499942
 20
570.882722998
 30
0.0
 11
147.0405009826
 21
570.8876135591
 31
0.0
  0
LINE
  5
395
  8
0
  6
CONTINUOUS
 62
     7
 10
144.7780457576
 20
569.8991182092
 30
0.0
 11
145.5897596916
 21
569.8991182092
 31
0.0
  0
LINE
  5
396
  8
0
  6
CONTINUOUS
 62
     7
 10
368.3008221229
 20
587.6395392064
 30
0.0
 11
368.3008221229
 21
587.9795390013
 31
0.0
  0
LINE
  5
397
  8
0
  6
CONTINUOUS
 62
     7
 10
368.3008221229
 20
587.9795390013
 30
0.0
 11
368.2008293708
 21
587.9795390013
 31
0.0
  0
LINE
  5
398
  8
0
  6
CONTINUOUS
 62
     7
 10
133.5008290847
 20
587.9795390013
 30
0.0
 11
133.5008290847
 21
587.6395392064
 31
0.0
  0
LINE
  5
399
  8
0
  6
CONTINUOUS
 62
     7
 10
133.6008277972
 20
587.9795390013
 30
0.0
 11
133.5008290847
 21
587.9795390013
 31
0.0
  0
LINE
  5
39A
  8
0
  6
CENTER
 62
     7
 10
95.682730853
 20
519.1602720833
 30
0.0
 11
404.1325273043
 21
519.1602720833
 31
0.0
  0
LINE
  5
39B
  8
0
  6
CONTINUOUS
 62
     7
 10
99.682730853
 20
543.1602720833
 30
0.0
 11
99.682730853
 21
519.1602720833
 31
0.0
  0
INSERT
  5
3A0
  8
0
  6
CONTINUOUS
 62
     7
  2
_OBLIQUE
 10
99.682730853
 20
519.1602720833
 30
0.0
 41
12.0
 42
12.0
 50
270.0
  0
LINE
  5
3A1
  8
0
  6
CONTINUOUS
 62
     7
 10
400.1325273043
 20
543.1602720833
 30
0.0
 11
400.1325273043
 21
519.1602720833
 31
0.0
  0
INSERT
  5
3A2
  8
0
  6
CONTINUOUS
 62
     7
  2
_OBLIQUE
 10
400.1325273043
 20
519.1602720833
 30
0.0
 41
12.0
 42
12.0
 50
270.0
  0
TEXT
  5
3A3
  8
0
  6
CONTINUOUS
 62
     7
 10
104.6866266762
 20
530.4602720833
 30
0.0
 40
12.7
  1
A
 41
0.7
 11
104.6866266762
 21
543.1602720833
 31
0.0
 73
     3
  0
TEXT
  5
3A4
  8
0
  6
CONTINUOUS
 62
     7
 10
405.1364231275
 20
530.4602720833
 30
0.0
 40
12.7
  1
A
 41
0.7
 11
405.1364231275
 21
543.1602720833
 31
0.0
 73
     3
  0
INSERT
  5
3A8
  8
0
  6
CONTINUOUS
 62
     7
  2
SW_BROKEN_VIEW_0
 10
0.0
 20
0.0
 30
0.0
  0
ARC
  5
3A9
  8
0
  6
CONTINUOUS
 62
     7
 10
429.1877887329
 20
173.1785824301
 30
0.0
 40
0.300079050649985
 50
0.0148349719
 51
89.9944134544
  0
LINE
  5
3AA
  8
0
  6
CONTINUOUS
 62
     7
 10
429.4878677735
 20
172.7786608058
 30
0.0
 11
429.4878677735
 21
173.1786601263
 31
0.0
  0
ARC
  5
3AB
  8
0
  6
CONTINUOUS
 62
     7
 10
429.7878529986
 20
172.7786446783
 30
0.0
 40
0.2999852255343883
 50
179.9969197166
 51
270.0009458192
  0
LINE
  5
3AC
  8
0
  6
CONTINUOUS
 62
     7
 10
441.7878226647
 20
172.4786594528
 30
0.0
 11
429.7878579507
 21
172.4786594528
 31
0.0
  0
ARC
  5
3AD
  8
0
  6
CONTINUOUS
 62
     7
 10
441.7878257397
 20
172.9786797431
 30
0.0
 40
0.5000202903753517
 50
269.9996476433
 51
359.9977910982
  0
LINE
  5
3AE
  8
0
  6
CONTINUOUS
 62
     7
 10
442.2878460298
 20
174.4786597806
 30
0.0
 11
442.2878460298
 21
172.9786604661
 31
0.0
  0
ARC
  5
3AF
  8
0
  6
CONTINUOUS
 62
     7
 10
441.7878257397
 20
174.4786405035
 30
0.0
 40
0.5000202903753517
 50
0.0022089018
 51
90.0003523567
  0
LINE
  5
3B0
  8
0
  6
CONTINUOUS
 62
     7
 10
439.2878250489
 20
174.9786607939
 30
0.0
 11
441.7878226647
 21
174.9786607939
 31
0.0
  0
ARC
  5
3B1
  8
0
  6
CONTINUOUS
 62
     7
 10
439.2878378038
 20
175.4785805723
 30
0.0
 40
0.4999197786150081
 50
243.4325326585
 51
269.9985381631
  0
LINE
  5
3B2
  8
0
  6
CONTINUOUS
 62
     7
 10
438.064260901
 20
175.5314454454
 30
0.0
 11
439.0642480264
 21
175.0314481574
 31
0.0
  0
ARC
  5
3B3
  8
0
  6
CONTINUOUS
 62
     7
 10
438.2878290111
 20
175.9786687366
 30
0.0
 40
0.4999913719400925
 50
89.9989786899
 51
243.4394110179
  0
LINE
  5
3B4
  8
0
  6
CONTINUOUS
 62
     7
 10
443.2878331551
 20
176.4786601084
 30
0.0
 11
438.2878379235
 21
176.4786601084
 31
0.0
  0
ARC
  5
3B5
  8
0
  6
CONTINUOUS
 62
     7
 10
443.2878135504
 20
175.9786171373
 30
0.0
 40
0.500042971547586
 50
0.0048076062
 51
89.9977536523
  0
LINE
  5
3B6
  8
0
  6
CONTINUOUS
 62
     7
 10
443.7878565202
 20
172.9786604661
 30
0.0
 11
443.7878565202
 21
175.9786590951
 31
0.0
  0
ARC
  5
3B7
  8
0
  6
CONTINUOUS
 62
     7
 10
444.2878169328
 20
172.9786198671
 30
0.0
 40
0.4999604142904944
 50
179.995347329
 51
270.0003836524
  0
LINE
  5
3B8
  8
0
  6
CONTINUOUS
 62
     7
 10
454.7679261575
 20
172.4786594528
 30
0.0
 11
444.2878202805
 21
172.4786594528
 31
0.0
  0
ARC
  5
3B9
  8
0
  6
CONTINUOUS
 62
     7
 10
454.7678946039
 20
172.9786476634
 30
0.0
 40
0.4999882116160835
 50
270.0036158597
 51
28.3615422925
  0
ARC
  5
3BA
  8
0
  6
CONTINUOUS
 62
     7
 10
458.2878464307
 20
174.8786208035
 30
0.0
 40
3.500006638488781
 50
154.320007645
 51
208.358582699
  0
ARC
  5
3BB
  8
0
  6
CONTINUOUS
 62
     7
 10
455.5841008891
 20
176.1787484249
 30
0.0
 40
0.4999113464309582
 50
89.9941233936
 51
154.3267627492
  0
LINE
  5
3BC
  8
0
  6
CONTINUOUS
 62
     7
 10
456.7363695512
 20
176.6786597687
 30
0.0
 11
455.584152163
 21
176.6786597687
 31
0.0
  0
ARC
  5
3BD
  8
0
  6
CONTINUOUS
 62
     7
 10
456.7363470019
 20
176.4786088597
 30
0.0
 40
0.2000509102054334
 50
3.9366652344
 51
89.9935417463
  0
ARC
  5
3BE
  8
0
  6
CONTINUOUS
 62
     7
 10
456.1127158786
 20
176.4359622432
 30
0.0
 40
0.8251384994869606
 50
324.3999300922
 51
3.9180139015
  0
ARC
  5
3BF
  8
0
  6
CONTINUOUS
 62
     7
 10
458.2878486524
 20
174.8786672331
 30
0.0
 40
1.850000811389835
 50
144.3986992181
 51
35.6013007819
  0
ARC
  5
3C0
  8
0
  6
CONTINUOUS
 62
     7
 10
460.4595254014
 20
176.4402252338
 30
0.0
 40
0.8248281860627567
 50
175.3713935247
 51
215.9806009708
  0
ARC
  5
3C1
  8
0
  6
CONTINUOUS
 62
     7
 10
459.8368726444
 20
176.4931519251
 30
0.0
 40
0.1999508066665874
 50
89.9796769513
 51
176.0901160679
  0
LINE
  5
3C2
  8
0
  6
CONTINUOUS
 62
     7
 10
460.9891609559
 20
176.6931027192
 30
0.0
 11
459.8369435677
 21
176.6931027192
 31
0.0
  0
ARC
  5
3C3
  8
0
  6
CONTINUOUS
 62
     7
 10
460.9848946108
 20
176.1931606229
 30
0.0
 40
0.4999602997450457
 50
23.8515940341
 51
89.5110681101
  0
ARC
  5
3C4
  8
0
  6
CONTINUOUS
 62
     7
 10
458.2879111701
 20
174.8786771371
 30
0.0
 40
3.499927886164302
 50
331.6396734345
 51
25.6795889774
  0
ARC
  5
3C5
  8
0
  6
CONTINUOUS
 62
     7
 10
461.8078144375
 20
172.9786902267
 30
0.0
 40
0.5000307757708841
 50
151.6466326058
 51
269.9950396065
  0
LINE
  5
3C6
  8
0
  6
CONTINUOUS
 62
     7
 10
516.871674479
 20
172.4786594528
 30
0.0
 11
461.8077711472
 21
172.4786594528
 31
0.0
  0
ARC
  5
3C7
  8
0
  6
CONTINUOUS
 62
     7
 10
516.8716525828
 20
172.9787075017
 30
0.0
 40
0.5000480493559517
 50
270.0025088759
 51
23.4353353925
  0
ARC
  5
3C8
  8
0
  6
CONTINUOUS
 62
     7
 10
521.1358706948
 20
174.8281476292
 30
0.0
 40
4.147960663919955
 50
188.126980839
 51
203.4483263665
  0
ARC
  5
3C9
  8
0
  6
CONTINUOUS
 62
     7
 10
518.1680176105
 20
174.4043841322
 30
0.0
 40
1.1500067913132
 50
8.1306793498
 51
188.1294728624
  0
ARC
  5
3CA
  8
0
  6
CONTINUOUS
 62
     7
 10
521.1378708778
 20
174.8286582522
 30
0.0
 40
1.849999368405887
 50
188.1300308802
 51
81.8704790116
  0
ARC
  5
3CB
  8
0
  6
CONTINUOUS
 62
     7
 10
521.5621050821
 20
177.7985092388
 30
0.0
 40
1.1499988887473
 50
81.8696572441
 51
261.8704530265
  0
ARC
  5
3CC
  8
0
  6
CONTINUOUS
 62
     7
 10
521.1378242828
 20
174.8285500618
 30
0.0
 40
4.150110838312101
 50
66.5564651119
 51
81.8698184999
  0
ARC
  5
3CD
  8
0
  6
CONTINUOUS
 62
     7
 10
522.9878395041
 20
179.0948211367
 30
0.0
 40
0.5000101498881615
 50
246.5580486345
 51
359.9981308794
  0
LINE
  5
3CE
  8
0
  6
CONTINUOUS
 62
     7
 10
523.4878496537
 20
214.119814827
 30
0.0
 11
523.4878496537
 21
179.0948048252
 31
0.0
  0
ARC
  5
3CF
  8
0
  6
CONTINUOUS
 62
     7
 10
523.7877871233
 20
214.1198710264
 30
0.0
 40
0.2999374748446613
 50
120.0007600916
 51
180.0107355241
  0
ARC
  5
3D0
  8
0
  6
CONTINUOUS
 62
     7
 10
523.4879005644
 20
214.6394301049
 30
0.0
 40
0.2999571745817378
 50
299.9858382872
 51
60.0141617128
  0
ARC
  5
3D1
  8
0
  6
CONTINUOUS
 62
     7
 10
523.7878631285
 20
215.1590453246
 30
0.0
 40
0.3000240999836883
 50
120.0079693676
 51
239.9920306324
  0
ARC
  5
3D2
  8
0
  6
CONTINUOUS
 62
     7
 10
523.4879005017
 20
215.6786605733
 30
0.0
 40
0.2999572311211143
 50
299.9858458804
 51
60.0141541196
  0
ARC
  5
3D3
  8
0
  6
CONTINUOUS
 62
     7
 10
523.7878631285
 20
216.1982758221
 30
0.0
 40
0.3000240999836883
 50
120.0079693676
 51
239.9920306324
  0
ARC
  5
3D4
  8
0
  6
CONTINUOUS
 62
     7
 10
523.4879005644
 20
216.7178910418
 30
0.0
 40
0.2999571745817378
 50
299.9858382872
 51
60.0141617128
  0
ARC
  5
3D5
  8
0
  6
CONTINUOUS
 62
     7
 10
523.7877871233
 20
217.2374501203
 30
0.0
 40
0.2999374748445627
 50
179.9892644759
 51
239.9992399085
  0
LINE
  5
3D6
  8
0
  6
CONTINUOUS
 62
     7
 10
523.4878496537
 20
252.2625163215
 30
0.0
 11
523.4878496537
 21
217.2375063197
 31
0.0
  0
ARC
  5
3D7
  8
0
  6
CONTINUOUS
 62
     7
 10
522.9878395041
 20
252.26250001
 30
0.0
 40
0.5000101498881615
 50
0.0018691206
 51
113.4419513655
  0
ARC
  5
3D8
  8
0
  6
CONTINUOUS
 62
     7
 10
521.1378242828
 20
256.5287710849
 30
0.0
 40
4.15011083831213
 50
278.1301815001
 51
293.4435348881
  0
ARC
  5
3D9
  8
0
  6
CONTINUOUS
 62
     7
 10
521.5621050821
 20
253.5588119079
 30
0.0
 40
1.149998888747328
 50
98.1295469735
 51
278.1303427559
  0
ARC
  5
3DA
  8
0
  6
CONTINUOUS
 62
     7
 10
521.1378634971
 20
256.5286555139
 30
0.0
 40
1.849993105660214
 50
278.1297796024
 51
171.8697105057
  0
ARC
  5
3DB
  8
0
  6
CONTINUOUS
 62
     7
 10
518.1680176105
 20
256.9529370144
 30
0.0
 40
1.150006791313192
 50
171.8705271376
 51
351.8693206502
  0
ARC
  5
3DC
  8
0
  6
CONTINUOUS
 62
     7
 10
521.1358706948
 20
256.5291735175
 30
0.0
 40
4.147960663919966
 50
156.5516736335
 51
171.873019161
  0
ARC
  5
3DD
  8
0
  6
CONTINUOUS
 62
     7
 10
516.8716525828
 20
258.378613645
 30
0.0
 40
0.5000480493559517
 50
336.5646646075
 51
89.9974911241
  0
LINE
  5
3DE
  8
0
  6
CONTINUOUS
 62
     7
 10
444.2878202805
 20
258.8786616939
 30
0.0
 11
516.871674479
 21
258.8786616939
 31
0.0
  0
ARC
  5
3DF
  8
0
  6
CONTINUOUS
 62
     7
 10
444.2878169328
 20
258.3787012796
 30
0.0
 40
0.4999604142904659
 50
89.9996163476
 51
180.004652671
  0
LINE
  5
3E0
  8
0
  6
CONTINUOUS
 62
     7
 10
443.7878565202
 20
255.3786620515
 30
0.0
 11
443.7878565202
 21
258.3786606806
 31
0.0
  0
ARC
  5
3E1
  8
0
  6
CONTINUOUS
 62
     7
 10
443.2878135504
 20
255.3787040094
 30
0.0
 40
0.500042971547586
 50
270.0022463477
 51
359.9951923938
  0
LINE
  5
3E2
  8
0
  6
CONTINUOUS
 62
     7
 10
438.2878379235
 20
254.8786610383
 30
0.0
 11
443.2878331551
 21
254.8786610383
 31
0.0
  0
ARC
  5
3E3
  8
0
  6
CONTINUOUS
 62
     7
 10
438.2878290111
 20
255.3786524101
 30
0.0
 40
0.4999913719400761
 50
116.5605889821
 51
270.0010213101
  0
LINE
  5
3E4
  8
0
  6
CONTINUOUS
 62
     7
 10
439.0642480264
 20
256.3258729893
 30
0.0
 11
438.064260901
 21
255.8258757013
 31
0.0
  0
ARC
  5
3E5
  8
0
  6
CONTINUOUS
 62
     7
 10
439.2878378038
 20
255.8787405744
 30
0.0
 40
0.4999197786149797
 50
90.0014618369
 51
116.5674673415
  0
LINE
  5
3E6
  8
0
  6
CONTINUOUS
 62
     7
 10
441.7878226647
 20
256.3786603528
 30
0.0
 11
439.2878250489
 21
256.3786603528
 31
0.0
  0
ARC
  5
3E7
  8
0
  6
CONTINUOUS
 62
     7
 10
441.7878257397
 20
256.8786806432
 30
0.0
 40
0.5000202903753517
 50
269.9996476433
 51
359.9977910982
  0
LINE
  5
3E8
  8
0
  6
CONTINUOUS
 62
     7
 10
442.2878460298
 20
258.3786606806
 30
0.0
 11
442.2878460298
 21
256.8786613661
 31
0.0
  0
ARC
  5
3E9
  8
0
  6
CONTINUOUS
 62
     7
 10
441.7878257397
 20
258.3786414035
 30
0.0
 40
0.5000202903753654
 50
0.0022089018
 51
90.0003523567
  0
LINE
  5
3EA
  8
0
  6
CONTINUOUS
 62
     7
 10
435.7077316651
 20
258.8786616939
 30
0.0
 11
441.7878226647
 21
258.8786616939
 31
0.0
  0
ARC
  5
3EB
  8
0
  6
CONTINUOUS
 62
     7
 10
435.7077500351
 20
257.8786719592
 30
0.0
 40
0.9999897348291894
 50
90.0010525325
 51
195.1976002462
  0
ARC
  5
3EC
  8
0
  6
CONTINUOUS
 62
     7
 10
430.7377714316
 20
256.5287122182
 30
0.0
 40
4.150066442147355
 50
323.1298931439
 51
15.1958677603
  0
ARC
  5
3ED
  8
0
  6
CONTINUOUS
 62
     7
 10
433.1378319587
 20
254.7286792386
 30
0.0
 40
1.149998232965374
 50
143.1312037271
 51
323.1288524986
  0
ARC
  5
3EE
  8
0
  6
CONTINUOUS
 62
     7
 10
430.7378367791
 20
256.528675775
 30
0.0
 40
1.84999583288491
 50
323.1294139553
 51
216.8705860447
  0
ARC
  5
3EF
  8
0
  6
CONTINUOUS
 62
     7
 10
428.3378582891
 20
254.7286569859
 30
0.0
 40
1.149998232731012
 50
216.8697616462
 51
36.870182128
  0
ARC
  5
3F0
  8
0
  6
CONTINUOUS
 62
     7
 10
430.7035098968
 20
256.504410891
 30
0.0
 40
4.107972040008615
 50
213.2363984004
 51
216.886766121
  0
ARC
  5
3F1
  8
0
  6
CONTINUOUS
 62
     7
 10
426.8493517731
 20
253.9785325625
 30
0.0
 40
0.5001291584539097
 50
33.2641455726
 51
89.9934934718
  0
LINE
  5
3F2
  8
0
  6
CONTINUOUS
 62
     7
 10
426.4878467927
 20
254.4786617178
 30
0.0
 11
426.8494085679
 21
254.4786617178
 31
0.0
  0
ARC
  5
3F3
  8
0
  6
CONTINUOUS
 62
     7
 10
426.487862655
 20
254.9787009466
 30
0.0
 40
0.5000392291045206
 50
180.004805692
 51
269.9981824541
  0
LINE
  5
3F4
  8
0
  6
CONTINUOUS
 62
     7
 10
425.9878234277
 20
257.0786610263
 30
0.0
 11
425.9878234277
 21
254.9786590057
 31
0.0
  0
ARC
  5
3F5
  8
0
  6
CONTINUOUS
 62
     7
 10
426.4878685172
 20
257.0786169487
 30
0.0
 40
0.5000450914235968
 50
90.0024892153
 51
179.9949495262
  0
LINE
  5
3F6
  8
0
  6
CONTINUOUS
 62
     7
 10
427.087827147
 20
257.5786620396
 30
0.0
 11
426.4878467927
 21
257.5786620396
 31
0.0
  0
LINE
  5
3F7
  8
0
  6
CONTINUOUS
 62
     7
 10
427.087827147
 20
258.8786616939
 30
0.0
 11
427.087827147
 21
257.5786620396
 31
0.0
  0
LINE
  5
3F8
  8
0
  6
CONTINUOUS
 62
     7
 10
421.587868155
 20
258.8786616939
 30
0.0
 11
427.087827147
 21
258.8786616939
 31
0.0
  0
LINE
  5
3F9
  8
0
  6
CONTINUOUS
 62
     7
 10
421.587868155
 20
257.5786620396
 30
0.0
 11
421.587868155
 21
258.8786616939
 31
0.0
  0
LINE
  5
3FA
  8
0
  6
CONTINUOUS
 62
     7
 10
422.1878485093
 20
257.5786620396
 30
0.0
 11
421.587868155
 21
257.5786620396
 31
0.0
  0
ARC
  5
3FB
  8
0
  6
CONTINUOUS
 62
     7
 10
422.1878267848
 20
257.0786169487
 30
0.0
 40
0.5000450914235968
 50
0.0050504738
 51
89.9975107847
  0
LINE
  5
3FC
  8
0
  6
CONTINUOUS
 62
     7
 10
422.6878718743
 20
256.5786600131
 30
0.0
 11
422.6878718743
 21
257.0786610263
 31
0.0
  0
ARC
  5
3FD
  8
0
  6
CONTINUOUS
 62
     7
 10
422.1878267848
 20
256.5787040907
 30
0.0
 40
0.5000450914235866
 50
270.0024892153
 51
359.9949495262
  0
LINE
  5
3FE
  8
0
  6
CONTINUOUS
 62
     7
 10
420.7878546128
 20
256.0786589998
 30
0.0
 11
422.1878485093
 21
256.0786589998
 31
0.0
  0
ARC
  5
3FF
  8
0
  6
CONTINUOUS
 62
     7
 10
420.7878763373
 20
256.5787040907
 30
0.0
 40
0.5000450914235399
 50
180.0050504738
 51
269.9975107847
  0
LINE
  5
400
  8
0
  6
CONTINUOUS
 62
     7
 10
420.2878312478
 20
260.4786589759
 30
0.0
 11
420.2878312478
 21
256.5786600131
 31
0.0
  0
ARC
  5
401
  8
0
  6
CONTINUOUS
 62
     7
 10
420.4878911199
 20
260.4786024832
 30
0.0
 40
0.2000598800386658
 50
90.007642171
 51
179.983820873
  0
LINE
  5
402
  8
0
  6
CONTINUOUS
 62
     7
 10
523.2878164658
 20
260.6786623615
 30
0.0
 11
420.4878644357
 21
260.6786623615
 31
0.0
  0
ARC
  5
403
  8
0
  6
CONTINUOUS
 62
     7
 10
523.2878473143
 20
258.6786593547
 30
0.0
 40
2.000003006990912
 50
0.0000767455
 51
90.0008837416
  0
LINE
  5
404
  8
0
  6
CONTINUOUS
 62
     7
 10
525.2878503213
 20
172.678659113
 30
0.0
 11
525.2878503213
 21
258.6786620337
 31
0.0
  0
ARC
  5
405
  8
0
  6
CONTINUOUS
 62
     7
 10
523.2878473143
 20
172.678661792
 30
0.0
 40
2.000003006990912
 50
269.9991162584
 51
359.9999232545
  0
LINE
  5
406
  8
0
  6
CONTINUOUS
 62
     7
 10
420.7878546128
 20
170.6786587852
 30
0.0
 11
523.2878164658
 21
170.6786587852
 31
0.0
  0
ARC
  5
407
  8
0
  6
CONTINUOUS
 62
     7
 10
420.7878763373
 20
171.1787038762
 30
0.0
 40
0.5000450914235683
 50
180.0050504738
 51
269.9975107847
  0
LINE
  5
408
  8
0
  6
CONTINUOUS
 62
     7
 10
420.2878312478
 20
171.9786621648
 30
0.0
 11
420.2878312478
 21
171.1786597985
 31
0.0
  0
ARC
  5
409
  8
0
  6
CONTINUOUS
 62
     7
 10
420.7878704751
 20
171.9786202239
 30
0.0
 40
0.500039229104549
 50
90.0018175459
 51
179.995194308
  0
LINE
  5
40A
  8
0
  6
CONTINUOUS
 62
     7
 10
423.3854250321
 20
172.4786594528
 30
0.0
 11
420.7878546128
 21
172.4786594528
 31
0.0
  0
ARC
  5
40B
  8
0
  6
CONTINUOUS
 62
     7
 10
423.3854098702
 20
172.978685629
 30
0.0
 40
0.5000261764573185
 50
270.001737341
 51
309.9989194123
  0
LINE
  5
40C
  8
0
  6
CONTINUOUS
 62
     7
 10
425.0964359651
 20
173.7616829592
 30
0.0
 11
423.7068132768
 21
172.5956372934
 31
0.0
  0
ARC
  5
40D
  8
0
  6
CONTINUOUS
 62
     7
 10
425.4178361521
 20
173.3786406124
 30
0.0
 40
0.5000195193156177
 50
45.000710178
 51
129.9990778967
  0
LINE
  5
40E
  8
0
  6
CONTINUOUS
 62
     7
 10
425.9077743897
 20
173.5958181339
 30
0.0
 11
425.7713989625
 21
173.7322121876
 31
0.0
  0
ARC
  5
40F
  8
0
  6
CONTINUOUS
 62
     7
 10
426.1906112426
 20
173.8786488517
 30
0.0
 40
0.3999873751079924
 50
224.9993785859
 51
270.0067025653
  0
LINE
  5
410
  8
0
  6
CONTINUOUS
 62
     7
 10
429.1878179917
 20
173.4786614793
 30
0.0
 11
426.1906580338
 21
173.4786614793
 31
0.0
  0
ARC
  5
411
  8
0
  6
CONTINUOUS
 62
     7
 10
425.7878608085
 20
240.0872713236
 30
0.0
 40
0.5999693911131966
 50
269.9989529598
 51
0.0030036355
  0
LINE
  5
412
  8
0
  6
CONTINUOUS
 62
     7
 10
422.0878319154
 20
239.4873019326
 30
0.0
 11
425.7878498445
 21
239.4873019326
 31
0.0
  0
ARC
  5
413
  8
0
  6
CONTINUOUS
 62
     7
 10
422.0878256362
 20
238.9873444496
 30
0.0
 40
0.4999574829551921
 50
89.9992804004
 51
180.0047751748
  0
LINE
  5
414
  8
0
  6
CONTINUOUS
 62
     7
 10
421.587868155
 20
175.7786594349
 30
0.0
 11
421.587868155
 21
238.9873027819
 31
0.0
  0
ARC
  5
415
  8
0
  6
CONTINUOUS
 62
     7
 10
422.0878211557
 20
175.7786151495
 30
0.0
 40
0.4999530026878085
 50
179.994924788
 51
270.0012330809
  0
LINE
  5
416
  8
0
  6
CONTINUOUS
 62
     7
 10
435.7878403077
 20
175.2786621469
 30
0.0
 11
422.0878319154
 21
175.2786621469
 31
0.0
  0
ARC
  5
417
  8
0
  6
CONTINUOUS
 62
     7
 10
435.7878259963
 20
175.7786998247
 30
0.0
 40
0.5000376780313136
 50
270.0016398397
 51
359.9953720143
  0
LINE
  5
418
  8
0
  6
CONTINUOUS
 62
     7
 10
436.2878636727
 20
176.6987912375
 30
0.0
 11
436.2878636727
 21
175.7786594349
 31
0.0
  0
ARC
  5
419
  8
0
  6
CONTINUOUS
 62
     7
 10
436.7878166735
 20
176.6988355229
 30
0.0
 40
0.4999530026878085
 50
89.9987669191
 51
180.005075212
  0
LINE
  5
41A
  8
0
  6
CONTINUOUS
 62
     7
 10
437.0878176103
 20
177.1987885254
 30
0.0
 11
436.7878274331
 21
177.1987885254
 31
0.0
  0
ARC
  5
41B
  8
0
  6
CONTINUOUS
 62
     7
 10
437.0878280963
 20
176.6987756464
 30
0.0
 40
0.5000128791776449
 50
0.00178656
 51
90.001201586
  0
LINE
  5
41C
  8
0
  6
CONTINUOUS
 62
     7
 10
437.5878409753
 20
174.4786597806
 30
0.0
 11
437.5878409753
 21
176.6987912375
 31
0.0
  0
ARC
  5
41D
  8
0
  6
CONTINUOUS
 62
     7
 10
437.0878206853
 20
174.4786790577
 30
0.0
 40
0.5000202903753517
 50
269.9996476433
 51
359.9977910982
  0
LINE
  5
41E
  8
0
  6
CONTINUOUS
 62
     7
 10
432.6107339272
 20
173.9786587673
 30
0.0
 11
437.0878176103
 21
173.9786587673
 31
0.0
  0
ARC
  5
41F
  8
0
  6
CONTINUOUS
 62
     7
 10
432.610722992
 20
173.4787894226
 30
0.0
 40
0.4998693448816999
 50
89.998746588
 51
125.0047203381
  0
LINE
  5
420
  8
0
  6
CONTINUOUS
 62
     7
 10
429.9599365601
 20
172.2329132277
 30
0.0
 11
432.3239759812
 21
173.8882347959
 31
0.0
  0
ARC
  5
421
  8
0
  6
CONTINUOUS
 62
     7
 10
429.7878614163
 20
172.4786495307
 30
0.0
 40
0.299993642916242
 50
179.9981049905
 51
305.001366126
  0
LINE
  5
422
  8
0
  6
CONTINUOUS
 62
     7
 10
429.4878677735
 20
173.4786614793
 30
0.0
 11
429.4878677735
 21
172.4786594528
 31
0.0
  0
ARC
  5
423
  8
0
  6
CONTINUOUS
 62
     7
 10
428.9878300971
 20
173.4786210895
 30
0.0
 40
0.5000376780313136
 50
0.0046279857
 51
89.9983601603
  0
LINE
  5
424
  8
0
  6
CONTINUOUS
 62
     7
 10
422.0878319154
 20
173.9786587673
 30
0.0
 11
428.9878444085
 21
173.9786587673
 31
0.0
  0
ARC
  5
425
  8
0
  6
CONTINUOUS
 62
     7
 10
422.0878211557
 20
173.4787057647
 30
0.0
 40
0.4999530026878085
 50
89.9987669191
 51
180.005075212
  0
LINE
  5
426
  8
0
  6
CONTINUOUS
 62
     7
 10
421.587868155
 20
172.9786604661
 30
0.0
 11
421.587868155
 21
173.4786614793
 31
0.0
  0
ARC
  5
427
  8
0
  6
CONTINUOUS
 62
     7
 10
421.0878230655
 20
172.9787045437
 30
0.0
 40
0.5000450914235866
 50
270.0024892153
 51
359.9949495262
  0
LINE
  5
428
  8
0
  6
CONTINUOUS
 62
     7
 10
420.7855896363
 20
172.4786594528
 30
0.0
 11
421.08784479
 21
172.4786594528
 31
0.0
  0
ARC
  5
429
  8
0
  6
CONTINUOUS
 62
     7
 10
420.785576711
 20
172.9786661971
 30
0.0
 40
0.5000067444952939
 50
185.4511835603
 51
270.0014811145
  0
LINE
  5
42A
  8
0
  6
CONTINUOUS
 62
     7
 10
420.2878312478
 20
241.5873020905
 30
0.0
 11
420.2878312478
 21
172.93116674
 31
0.0
  0
ARC
  5
42B
  8
0
  6
CONTINUOUS
 62
     7
 10
420.6878596571
 20
241.5872730012
 30
0.0
 40
0.4000284103788024
 50
90.0030992285
 51
179.9958335626
  0
LINE
  5
42C
  8
0
  6
CONTINUOUS
 62
     7
 10
421.587868155
 20
241.987301411
 30
0.0
 11
420.6878380189
 21
241.987301411
 31
0.0
  0
LINE
  5
42D
  8
0
  6
CONTINUOUS
 62
     7
 10
421.587868155
 20
240.7873015868
 30
0.0
 11
421.587868155
 21
241.987301411
 31
0.0
  0
LINE
  5
42E
  8
0
  6
CONTINUOUS
 62
     7
 10
425.0878528962
 20
240.7873015868
 30
0.0
 11
421.587868155
 21
240.7873015868
 31
0.0
  0
LINE
  5
42F
  8
0
  6
CONTINUOUS
 62
     7
 10
425.0878528962
 20
253.1873010117
 30
0.0
 11
425.0878528962
 21
240.7873015868
 31
0.0
  0
LINE
  5
430
  8
0
  6
CONTINUOUS
 62
     7
 10
421.587868155
 20
253.1873010117
 30
0.0
 11
425.0878528962
 21
253.1873010117
 31
0.0
  0
LINE
  5
431
  8
0
  6
CONTINUOUS
 62
     7
 10
421.587868155
 20
251.9873030501
 30
0.0
 11
421.587868155
 21
253.1873010117
 31
0.0
  0
LINE
  5
432
  8
0
  6
CONTINUOUS
 62
     7
 10
420.6878380189
 20
251.9873030501
 30
0.0
 11
421.587868155
 21
251.9873030501
 31
0.0
  0
ARC
  5
433
  8
0
  6
CONTINUOUS
 62
     7
 10
420.6878604324
 20
252.3873322352
 30
0.0
 40
0.4000291856786736
 50
180.0042774687
 51
269.9967897403
  0
LINE
  5
434
  8
0
  6
CONTINUOUS
 62
     7
 10
420.2878312478
 20
255.2786603588
 30
0.0
 11
420.2878312478
 21
252.3873023706
 31
0.0
  0
ARC
  5
435
  8
0
  6
CONTINUOUS
 62
     7
 10
420.7878763373
 20
255.2786162811
 30
0.0
 40
0.5000450914236252
 50
90.0024892153
 51
179.9949495262
  0
LINE
  5
436
  8
0
  6
CONTINUOUS
 62
     7
 10
422.386570395
 20
255.778661372
 30
0.0
 11
420.7878546128
 21
255.778661372
 31
0.0
  0
ARC
  5
437
  8
0
  6
CONTINUOUS
 62
     7
 10
422.3865751188
 20
256.2799317109
 30
0.0
 40
0.5012703388671179
 50
269.9994600594
 51
0.0013915362
  0
LINE
  5
438
  8
0
  6
CONTINUOUS
 62
     7
 10
422.8878454575
 20
257.2048477846
 30
0.0
 11
422.8878454575
 21
256.2799438852
 31
0.0
  0
ARC
  5
439
  8
0
  6
CONTINUOUS
 62
     7
 10
423.8878488325
 20
257.2048464363
 30
0.0
 40
1.000003374975881
 50
90.0009310291
 51
179.9999227492
  0
LINE
  5
43A
  8
0
  6
CONTINUOUS
 62
     7
 10
424.1878227601
 20
258.2048498112
 30
0.0
 11
423.8878325829
 21
258.2048498112
 31
0.0
  0
ARC
  5
43B
  8
0
  6
CONTINUOUS
 62
     7
 10
424.1878732071
 20
256.7048897681
 30
0.0
 40
1.499960043898902
 50
359.9984998994
 51
90.001926986
  0
LINE
  5
43C
  8
0
  6
CONTINUOUS
 62
     7
 10
425.6878332505
 20
256.2189534324
 30
0.0
 11
425.6878332505
 21
256.7048504966
 31
0.0
  0
ARC
  5
43D
  8
0
  6
CONTINUOUS
 62
     7
 10
425.2878379807
 20
256.2189493816
 30
0.0
 40
0.3999952698792322
 50
269.9983525508
 51
0.0005802402
  0
LINE
  5
43E
  8
0
  6
CONTINUOUS
 62
     7
 10
424.5878295312
 20
255.8189541119
 30
0.0
 11
425.2878264794
 21
255.8189541119
 31
0.0
  0
ARC
  5
43F
  8
0
  6
CONTINUOUS
 62
     7
 10
424.5878519447
 20
255.4189249269
 30
0.0
 40
0.4000291856786736
 50
90.0032102598
 51
179.9957225313
  0
LINE
  5
440
  8
0
  6
CONTINUOUS
 62
     7
 10
424.1878227601
 20
254.9189537781
 30
0.0
 11
424.1878227601
 21
255.4189547914
 31
0.0
  0
ARC
  5
441
  8
0
  6
CONTINUOUS
 62
     7
 10
424.5878519447
 20
254.9189836427
 30
0.0
 40
0.4000291856786736
 50
180.0042774687
 51
269.9967897403
  0
LINE
  5
442
  8
0
  6
CONTINUOUS
 62
     7
 10
425.4389242539
 20
254.5189544576
 30
0.0
 11
424.5878295312
 21
254.5189544576
 31
0.0
  0
ARC
  5
443
  8
0
  6
CONTINUOUS
 62
     7
 10
425.4389367132
 20
254.1190618464
 30
0.0
 40
0.3998926114442631
 50
50.2639883209
 51
90.001785136
  0
LINE
  5
444
  8
0
  6
CONTINUOUS
 62
     7
 10
426.207406939
 20
254.0003530699
 30
0.0
 11
425.6945685754
 21
254.4265784341
 31
0.0
  0
ARC
  5
445
  8
0
  6
CONTINUOUS
 62
     7
 10
425.8880273673
 20
253.6159059768
 30
0.0
 40
0.499802839310281
 50
359.9898492077
 51
50.2818793881
  0
LINE
  5
446
  8
0
  6
CONTINUOUS
 62
     7
 10
426.3878301988
 20
240.087302776
 30
0.0
 11
426.3878301988
 21
253.6158174294
 31
0.0
  0
LINE
  5
447
  8
0
  6
CONTINUOUS
 62
     7
 10
262.174571204
 20
247.6786620933
 30
0.0
 11
262.174571204
 21
248.1786593812
 31
0.0
  0
LINE
  5
448
  8
0
  6
CONTINUOUS
 62
     7
 10
147.8535181759
 20
247.6786620933
 30
0.0
 11
262.174571204
 21
247.6786620933
 31
0.0
  0
ARC
  5
449
  8
0
  6
CONTINUOUS
 62
     7
 10
142.1746253213
 20
215.6786617586
 30
0.0
 40
32.49999762268735
 50
89.9999987325
 51
79.9367525497
  0
LINE
  5
44A
  8
0
  6
CONTINUOUS
 62
     7
 10
262.174571204
 20
248.1786593812
 30
0.0
 11
142.1746260403
 21
248.1786593812
 31
0.0
  0
CIRCLE
  5
44B
  8
0
  6
CONTINUOUS
 62
     7
 10
142.1746424861
 20
215.6786650197
 30
0.0
 40
22.49998765584088
  0
ARC
  5
44C
  8
0
  6
CONTINUOUS
 62
     7
 10
178.167668996
 20
174.2786195213
 30
0.0
 40
0.4999604142904944
 50
269.9996163476
 51
0.004652671
  0
LINE
  5
44D
  8
0
  6
CONTINUOUS
 62
     7
 10
178.6676294087
 20
175.2786621469
 30
0.0
 11
178.6676294087
 21
174.2786601203
 31
0.0
  0
ARC
  5
44E
  8
0
  6
CONTINUOUS
 62
     7
 10
178.1676748588
 20
175.2787048833
 30
0.0
 40
0.4999545516714107
 50
359.9951023239
 51
90.0010555451
  0
LINE
  5
44F
  8
0
  6
CONTINUOUS
 62
     7
 10
166.8676382778
 20
175.7786594349
 30
0.0
 11
178.1676656483
 21
175.7786594349
 31
0.0
  0
ARC
  5
450
  8
0
  6
CONTINUOUS
 62
     7
 10
166.8676290673
 20
175.2787048833
 30
0.0
 40
0.4999545516714107
 50
89.9989444549
 51
180.0048976761
  0
LINE
  5
451
  8
0
  6
CONTINUOUS
 62
     7
 10
166.3676745175
 20
173.3786597866
 30
0.0
 11
166.3676745175
 21
175.2786621469
 31
0.0
  0
ARC
  5
452
  8
0
  6
CONTINUOUS
 62
     7
 10
164.5676408311
 20
173.3786928054
 30
0.0
 40
1.800033686674971
 50
270.0010510014
 51
359.9989489986
  0
LINE
  5
453
  8
0
  6
CONTINUOUS
 62
     7
 10
160.9676725147
 20
171.578659119
 30
0.0
 11
164.5676738499
 21
171.578659119
 31
0.0
  0
ARC
  5
454
  8
0
  6
CONTINUOUS
 62
     7
 10
160.9676805242
 20
172.2286589461
 30
0.0
 40
0.6499998271958772
 50
90.0007060111
 51
269.9992939889
  0
LINE
  5
455
  8
0
  6
CONTINUOUS
 62
     7
 10
164.5676738499
 20
172.8786587733
 30
0.0
 11
160.9676725147
 21
172.8786587733
 31
0.0
  0
ARC
  5
456
  8
0
  6
CONTINUOUS
 62
     7
 10
164.5676771976
 20
173.3786191876
 30
0.0
 40
0.4999604142904944
 50
269.9996163476
 51
0.004652671
  0
LINE
  5
457
  8
0
  6
CONTINUOUS
 62
     7
 10
165.0676376103
 20
175.2786621469
 30
0.0
 11
165.0676376103
 21
173.3786597866
 31
0.0
  0
ARC
  5
458
  8
0
  6
CONTINUOUS
 62
     7
 10
166.867663884
 20
175.2786328154
 30
0.0
 40
1.800026273989952
 50
90.0008150581
 51
179.9990663622
  0
LINE
  5
459
  8
0
  6
CONTINUOUS
 62
     7
 10
182.2858101605
 20
177.0786590892
 30
0.0
 11
166.8676382778
 21
177.0786590892
 31
0.0
  0
ARC
  5
45A
  8
0
  6
CONTINUOUS
 62
     7
 10
182.2858054323
 20
175.0784655066
 30
0.0
 40
2.000193582551407
 50
60.0014994496
 51
89.9998645613
  0
LINE
  5
45B
  8
0
  6
CONTINUOUS
 62
     7
 10
187.0341545818
 20
174.6466107684
 30
0.0
 11
183.2858568905
 21
176.8107101339
 31
0.0
  0
ARC
  5
45C
  8
0
  6
CONTINUOUS
 62
     7
 10
188.0342176858
 20
176.3788988499
 30
0.0
 40
2.000237038178197
 50
240.0018328851
 51
269.9978236338
  0
LINE
  5
45D
  8
0
  6
CONTINUOUS
 62
     7
 10
193.9676648853
 20
174.3786618131
 30
0.0
 11
188.0341417072
 21
174.3786618131
 31
0.0
  0
ARC
  5
45E
  8
0
  6
CONTINUOUS
 62
     7
 10
193.967675645
 20
174.8786148157
 30
0.0
 40
0.4999530026878179
 50
269.9987669191
 51
0.005075212
  0
LINE
  5
45F
  8
0
  6
CONTINUOUS
 62
     7
 10
194.4676286457
 20
234.4786603021
 30
0.0
 11
194.4676286457
 21
174.8786591011
 31
0.0
  0
ARC
  5
460
  8
0
  6
CONTINUOUS
 62
     7
 10
193.9676692931
 20
234.4787019611
 30
0.0
 40
0.4999593543084485
 50
359.9952258433
 51
90.0005051381
  0
LINE
  5
461
  8
0
  6
CONTINUOUS
 62
     7
 10
188.1676561115
 20
234.9786613154
 30
0.0
 11
193.9676648853
 21
234.9786613154
 31
0.0
  0
ARC
  5
462
  8
0
  6
CONTINUOUS
 62
     7
 10
188.1676741294
 20
235.4787026998
 30
0.0
 40
0.5000413846995507
 50
180.0048392297
 51
269.9979354722
  0
LINE
  5
463
  8
0
  6
CONTINUOUS
 62
     7
 10
187.6676327465
 20
238.3786611277
 30
0.0
 11
187.6676327465
 21
235.4786604661
 31
0.0
  0
ARC
  5
464
  8
0
  6
CONTINUOUS
 62
     7
 10
188.1676741294
 20
238.3786188939
 30
0.0
 40
0.5000413846995704
 50
90.0020645278
 51
179.9951607703
  0
LINE
  5
465
  8
0
  6
CONTINUOUS
 62
     7
 10
189.567650008
 20
238.8786602783
 30
0.0
 11
188.1676561115
 21
238.8786602783
 31
0.0
  0
ARC
  5
466
  8
0
  6
CONTINUOUS
 62
     7
 10
189.5676319901
 20
238.3786188939
 30
0.0
 40
0.5000413846995704
 50
0.0048392297
 51
89.9979354722
  0
LINE
  5
467
  8
0
  6
CONTINUOUS
 62
     7
 10
190.067673373
 20
238.0786597746
 30
0.0
 11
190.067673373
 21
238.3786611277
 31
0.0
  0
ARC
  5
468
  8
0
  6
CONTINUOUS
 62
     7
 10
189.5676312147
 20
238.0787027839
 30
0.0
 40
0.5000421602383487
 50
270.0021533798
 51
359.9950719184
  0
LINE
  5
469
  8
0
  6
CONTINUOUS
 62
     7
 10
188.9676696537
 20
237.578660624
 30
0.0
 11
189.567650008
 21
237.578660624
 31
0.0
  0
LINE
  5
46A
  8
0
  6
CONTINUOUS
 62
     7
 10
188.9676696537
 20
236.2786609697
 30
0.0
 11
188.9676696537
 21
237.578660624
 31
0.0
  0
LINE
  5
46B
  8
0
  6
CONTINUOUS
 62
     7
 10
194.4676286457
 20
236.2786609697
 30
0.0
 11
188.9676696537
 21
236.2786609697
 31
0.0
  0
LINE
  5
46C
  8
0
  6
CONTINUOUS
 62
     7
 10
194.4676286457
 20
237.578660624
 30
0.0
 11
194.4676286457
 21
236.2786609697
 31
0.0
  0
LINE
  5
46D
  8
0
  6
CONTINUOUS
 62
     7
 10
193.8676482914
 20
237.578660624
 30
0.0
 11
194.4676286457
 21
237.578660624
 31
0.0
  0
ARC
  5
46E
  8
0
  6
CONTINUOUS
 62
     7
 10
193.8676670848
 20
238.0787027839
 30
0.0
 40
0.5000421602383013
 50
180.0049280816
 51
269.9978466202
  0
LINE
  5
46F
  8
0
  6
CONTINUOUS
 62
     7
 10
193.3676249264
 20
238.3786611277
 30
0.0
 11
193.3676249264
 21
238.0786597746
 31
0.0
  0
ARC
  5
470
  8
0
  6
CONTINUOUS
 62
     7
 10
193.8676663093
 20
238.3786188939
 30
0.0
 40
0.5000413846995704
 50
90.0020645278
 51
179.9951607703
  0
LINE
  5
471
  8
0
  6
CONTINUOUS
 62
     7
 10
195.2676421879
 20
238.8786602783
 30
0.0
 11
193.8676482914
 21
238.8786602783
 31
0.0
  0
ARC
  5
472
  8
0
  6
CONTINUOUS
 62
     7
 10
195.26762417
 20
238.3786188939
 30
0.0
 40
0.5000413846995704
 50
0.0048392297
 51
89.9979354722
  0
LINE
  5
473
  8
0
  6
CONTINUOUS
 62
     7
 10
195.7676655529
 20
172.0786601323
 30
0.0
 11
195.7676655529
 21
238.3786611277
 31
0.0
  0
ARC
  5
474
  8
0
  6
CONTINUOUS
 62
     7
 10
195.2676204634
 20
172.0787042099
 30
0.0
 40
0.5000450914235683
 50
270.0024892153
 51
359.9949495262
  0
LINE
  5
475
  8
0
  6
CONTINUOUS
 62
     7
 10
194.9676520107
 20
171.578659119
 30
0.0
 11
195.2676421879
 21
171.578659119
 31
0.0
  0
ARC
  5
476
  8
0
  6
CONTINUOUS
 62
     7
 10
194.9676737352
 20
172.0787042099
 30
0.0
 40
0.5000450914235866
 50
180.0050504738
 51
269.9975107847
  0
LINE
  5
477
  8
0
  6
CONTINUOUS
 62
     7
 10
194.4676286457
 20
172.5786611455
 30
0.0
 11
194.4676286457
 21
172.0786601323
 31
0.0
  0
ARC
  5
478
  8
0
  6
CONTINUOUS
 62
     7
 10
193.9676682331
 20
172.5787017445
 30
0.0
 40
0.4999604142905228
 50
359.995347329
 51
90.0003836524
  0
LINE
  5
479
  8
0
  6
CONTINUOUS
 62
     7
 10
190.9818894146
 20
173.0786621588
 30
0.0
 11
193.9676648853
 21
173.0786621588
 31
0.0
  0
ARC
  5
47A
  8
0
  6
CONTINUOUS
 62
     7
 10
190.981835282
 20
172.578746114
 30
0.0
 40
0.4999160477935194
 50
89.9937958169
 51
135.0043104285
  0
LINE
  5
47B
  8
0
  6
CONTINUOUS
 62
     7
 10
189.8212081669
 20
172.1251070517
 30
0.0
 11
190.6283146618
 21
172.9322135466
 31
0.0
  0
ARC
  5
47C
  8
0
  6
CONTINUOUS
 62
     7
 10
189.4676477586
 20
172.47867203
 30
0.0
 40
0.5000131560042521
 50
229.9999509636
 51
314.9996297055
  0
LINE
  5
47D
  8
0
  6
CONTINUOUS
 62
     7
 10
188.1141311405
 20
172.9616843182
 30
0.0
 11
189.1462451695
 21
172.0956400054
 31
0.0
  0
ARC
  5
47E
  8
0
  6
CONTINUOUS
 62
     7
 10
187.7928030178
 20
172.5788428195
 30
0.0
 40
0.4998193429417698
 50
49.9924512984
 51
90.0068919483
  0
LINE
  5
47F
  8
0
  6
CONTINUOUS
 62
     7
 10
187.6858121632
 20
173.0786621588
 30
0.0
 11
187.7927428959
 21
173.0786621588
 31
0.0
  0
ARC
  5
480
  8
0
  6
CONTINUOUS
 62
     7
 10
187.6858765018
 20
175.0788557554
 30
0.0
 40
2.000193597606782
 50
240.0014995062
 51
269.9981570127
  0
LINE
  5
481
  8
0
  6
CONTINUOUS
 62
     7
 10
182.9375273464
 20
175.5107104796
 30
0.0
 11
186.6858250378
 21
173.3466111141
 31
0.0
  0
ARC
  5
482
  8
0
  6
CONTINUOUS
 62
     7
 10
181.9374642499
 20
173.7784224153
 30
0.0
 40
2.000237019694012
 50
60.0018328221
 51
89.9995311888
  0
LINE
  5
483
  8
0
  6
CONTINUOUS
 62
     7
 10
180.4676300762
 20
175.7786594349
 30
0.0
 11
181.9374806164
 21
175.7786594349
 31
0.0
  0
ARC
  5
484
  8
0
  6
CONTINUOUS
 62
     7
 10
180.4676208657
 20
175.2787048833
 30
0.0
 40
0.4999545516714107
 50
89.9989444549
 51
180.0048976761
  0
LINE
  5
485
  8
0
  6
CONTINUOUS
 62
     7
 10
179.9676663159
 20
172.9786604661
 30
0.0
 11
179.9676663159
 21
175.2786621469
 31
0.0
  0
ARC
  5
486
  8
0
  6
CONTINUOUS
 62
     7
 10
179.4676212264
 20
172.9787045437
 30
0.0
 40
0.5000450914235683
 50
270.0024892153
 51
359.9949495262
  0
LINE
  5
487
  8
0
  6
CONTINUOUS
 62
     7
 10
174.4676477192
 20
172.4786594528
 30
0.0
 11
179.4676429508
 21
172.4786594528
 31
0.0
  0
ARC
  5
488
  8
0
  6
CONTINUOUS
 62
     7
 10
174.4676314066
 20
172.9786531411
 30
0.0
 40
0.4999936886077802
 50
106.6943094525
 51
270.0018693125
  0
LINE
  5
489
  8
0
  6
CONTINUOUS
 62
     7
 10
175.3239876507
 20
173.757573964
 30
0.0
 11
174.3240005253
 21
173.457572611
 31
0.0
  0
ARC
  5
48A
  8
0
  6
CONTINUOUS
 62
     7
 10
175.4676260057
 20
173.278862636
 30
0.0
 40
0.4997964711759849
 50
89.9989867269
 51
106.7019845593
  0
LINE
  5
48B
  8
0
  6
CONTINUOUS
 62
     7
 10
178.1676656483
 20
173.7786591071
 30
0.0
 11
175.4676348446
 21
173.7786591071
 31
0.0
  0
ARC
  5
48C
  8
0
  6
CONTINUOUS
 62
     7
 10
190.6376606486
 20
173.3786406124
 30
0.0
 40
0.5000195193155628
 50
50.0009221033
 51
134.999289822
  0
LINE
  5
48D
  8
0
  6
CONTINUOUS
 62
     7
 10
192.348683524
 20
172.5956372934
 30
0.0
 11
190.9590608357
 21
173.7616829592
 31
0.0
  0
ARC
  5
48E
  8
0
  6
CONTINUOUS
 62
     7
 10
192.6700869305
 20
172.978685629
 30
0.0
 40
0.5000261764573091
 50
230.0010805877
 51
269.998262659
  0
LINE
  5
48F
  8
0
  6
CONTINUOUS
 62
     7
 10
195.2676421879
 20
172.4786594528
 30
0.0
 11
192.6700717686
 21
172.4786594528
 31
0.0
  0
ARC
  5
490
  8
0
  6
CONTINUOUS
 62
     7
 10
195.2676263256
 20
171.9786202239
 30
0.0
 40
0.5000392291045934
 50
0.004805692
 51
89.9981824541
  0
LINE
  5
491
  8
0
  6
CONTINUOUS
 62
     7
 10
195.7676655529
 20
171.1786597985
 30
0.0
 11
195.7676655529
 21
171.9786621648
 31
0.0
  0
ARC
  5
492
  8
0
  6
CONTINUOUS
 62
     7
 10
195.2676204634
 20
171.1787038762
 30
0.0
 40
0.5000450914235683
 50
270.0024892153
 51
359.9949495262
  0
LINE
  5
493
  8
0
  6
CONTINUOUS
 62
     7
 10
92.7676803349
 20
170.6786587852
 30
0.0
 11
195.2676421879
 21
170.6786587852
 31
0.0
  0
ARC
  5
494
  8
0
  6
CONTINUOUS
 62
     7
 10
92.7676494864
 20
172.678661792
 30
0.0
 40
2.00000300699084
 50
180.0000767455
 51
270.0008837416
  0
LINE
  5
495
  8
0
  6
CONTINUOUS
 62
     7
 10
90.7676464794
 20
258.6786620337
 30
0.0
 11
90.7676464794
 21
172.678659113
 31
0.0
  0
ARC
  5
496
  8
0
  6
CONTINUOUS
 62
     7
 10
92.7676494864
 20
258.6786593547
 30
0.0
 40
2.00000300699084
 50
89.9991162584
 51
179.9999232545
  0
LINE
  5
497
  8
0
  6
CONTINUOUS
 62
     7
 10
195.567632365
 20
260.6786623615
 30
0.0
 11
92.7676803349
 21
260.6786623615
 31
0.0
  0
ARC
  5
498
  8
0
  6
CONTINUOUS
 62
     7
 10
195.5676056809
 20
260.4786024832
 30
0.0
 40
0.2000598800386658
 50
0.016179127
 51
89.9923578289
  0
LINE
  5
499
  8
0
  6
CONTINUOUS
 62
     7
 10
195.7676655529
 20
256.5786600131
 30
0.0
 11
195.7676655529
 21
260.4786589759
 31
0.0
  0
ARC
  5
49A
  8
0
  6
CONTINUOUS
 62
     7
 10
195.2676204634
 20
256.5787040907
 30
0.0
 40
0.5000450914235581
 50
270.0024892153
 51
359.9949495262
  0
LINE
  5
49B
  8
0
  6
CONTINUOUS
 62
     7
 10
193.8676482914
 20
256.0786589998
 30
0.0
 11
195.2676421879
 21
256.0786589998
 31
0.0
  0
ARC
  5
49C
  8
0
  6
CONTINUOUS
 62
     7
 10
193.8676700159
 20
256.5787040907
 30
0.0
 40
0.5000450914235866
 50
180.0050504738
 51
269.9975107847
  0
LINE
  5
49D
  8
0
  6
CONTINUOUS
 62
     7
 10
193.3676249264
 20
257.0786610263
 30
0.0
 11
193.3676249264
 21
256.5786600131
 31
0.0
  0
ARC
  5
49E
  8
0
  6
CONTINUOUS
 62
     7
 10
193.8676700159
 20
257.0786169487
 30
0.0
 40
0.5000450914235968
 50
90.0024892153
 51
179.9949495262
  0
LINE
  5
49F
  8
0
  6
CONTINUOUS
 62
     7
 10
194.4676286457
 20
257.5786620396
 30
0.0
 11
193.8676482914
 21
257.5786620396
 31
0.0
  0
LINE
  5
4A0
  8
0
  6
CONTINUOUS
 62
     7
 10
194.4676286457
 20
258.8786616939
 30
0.0
 11
194.4676286457
 21
257.5786620396
 31
0.0
  0
LINE
  5
4A1
  8
0
  6
CONTINUOUS
 62
     7
 10
188.9676696537
 20
258.8786616939
 30
0.0
 11
194.4676286457
 21
258.8786616939
 31
0.0
  0
LINE
  5
4A2
  8
0
  6
CONTINUOUS
 62
     7
 10
188.9676696537
 20
257.5786620396
 30
0.0
 11
188.9676696537
 21
258.8786616939
 31
0.0
  0
LINE
  5
4A3
  8
0
  6
CONTINUOUS
 62
     7
 10
189.567650008
 20
257.5786620396
 30
0.0
 11
188.9676696537
 21
257.5786620396
 31
0.0
  0
ARC
  5
4A4
  8
0
  6
CONTINUOUS
 62
     7
 10
189.5676282836
 20
257.0786169487
 30
0.0
 40
0.5000450914235968
 50
0.0050504738
 51
89.9975107847
  0
LINE
  5
4A5
  8
0
  6
CONTINUOUS
 62
     7
 10
190.067673373
 20
254.9786590057
 30
0.0
 11
190.067673373
 21
257.0786610263
 31
0.0
  0
ARC
  5
4A6
  8
0
  6
CONTINUOUS
 62
     7
 10
189.5676341457
 20
254.9787009466
 30
0.0
 40
0.5000392291045934
 50
270.0018175459
 51
359.995194308
  0
LINE
  5
4A7
  8
0
  6
CONTINUOUS
 62
     7
 10
189.2060882328
 20
254.4786617178
 30
0.0
 11
189.567650008
 21
254.4786617178
 31
0.0
  0
ARC
  5
4A8
  8
0
  6
CONTINUOUS
 62
     7
 10
189.2061450277
 20
253.9785325625
 30
0.0
 40
0.5001291584538388
 50
90.0065065281
 51
146.7358544274
  0
ARC
  5
4A9
  8
0
  6
CONTINUOUS
 62
     7
 10
185.3519869039
 20
256.504410891
 30
0.0
 40
4.107972040008704
 50
323.113233879
 51
326.7636015996
  0
ARC
  5
4AA
  8
0
  6
CONTINUOUS
 62
     7
 10
187.7176385116
 20
254.7286569859
 30
0.0
 40
1.149998232731036
 50
143.129817872
 51
323.1302383538
  0
ARC
  5
4AB
  8
0
  6
CONTINUOUS
 62
     7
 10
185.3176600216
 20
256.528675775
 30
0.0
 40
1.84999583288491
 50
323.1294139553
 51
216.8705860447
  0
ARC
  5
4AC
  8
0
  6
CONTINUOUS
 62
     7
 10
182.9176648421
 20
254.7286792386
 30
0.0
 40
1.149998232965342
 50
216.8711475014
 51
36.8687962729
  0
ARC
  5
4AD
  8
0
  6
CONTINUOUS
 62
     7
 10
185.3177253692
 20
256.5287122182
 30
0.0
 40
4.150066442147301
 50
164.8041322397
 51
216.8701068561
  0
ARC
  5
4AE
  8
0
  6
CONTINUOUS
 62
     7
 10
180.3477467656
 20
257.8786719592
 30
0.0
 40
0.9999897348292671
 50
344.8023997538
 51
89.9989474675
  0
LINE
  5
4AF
  8
0
  6
CONTINUOUS
 62
     7
 10
174.267674136
 20
258.8786616939
 30
0.0
 11
180.3477651356
 21
258.8786616939
 31
0.0
  0
ARC
  5
4B0
  8
0
  6
CONTINUOUS
 62
     7
 10
174.267671061
 20
258.3786414035
 30
0.0
 40
0.5000202903753654
 50
89.9996476433
 51
179.9977910982
  0
LINE
  5
4B1
  8
0
  6
CONTINUOUS
 62
     7
 10
173.767650771
 20
256.8786613661
 30
0.0
 11
173.767650771
 21
258.3786606806
 31
0.0
  0
ARC
  5
4B2
  8
0
  6
CONTINUOUS
 62
     7
 10
174.267671061
 20
256.8786806432
 30
0.0
 40
0.5000202903753086
 50
180.0022089018
 51
270.0003523567
  0
LINE
  5
4B3
  8
0
  6
CONTINUOUS
 62
     7
 10
176.7676717518
 20
256.3786603528
 30
0.0
 11
174.267674136
 21
256.3786603528
 31
0.0
  0
ARC
  5
4B4
  8
0
  6
CONTINUOUS
 62
     7
 10
176.7676589969
 20
255.8787405744
 30
0.0
 40
0.4999197786149856
 50
63.4325326585
 51
89.998538163
  0
LINE
  5
4B5
  8
0
  6
CONTINUOUS
 62
     7
 10
177.9912358997
 20
255.8258757013
 30
0.0
 11
176.9912487743
 21
256.3258729893
 31
0.0
  0
ARC
  5
4B6
  8
0
  6
CONTINUOUS
 62
     7
 10
177.7676677897
 20
255.3786524101
 30
0.0
 40
0.4999913719400888
 50
269.9989786899
 51
63.4394110179
  0
LINE
  5
4B7
  8
0
  6
CONTINUOUS
 62
     7
 10
172.7676636456
 20
254.8786610383
 30
0.0
 11
177.7676588772
 21
254.8786610383
 31
0.0
  0
ARC
  5
4B8
  8
0
  6
CONTINUOUS
 62
     7
 10
172.7676832503
 20
255.3787040094
 30
0.0
 40
0.500042971547539
 50
180.0048076062
 51
269.9977536523
  0
LINE
  5
4B9
  8
0
  6
CONTINUOUS
 62
     7
 10
172.2676402805
 20
258.3786606806
 30
0.0
 11
172.2676402805
 21
255.3786620515
 31
0.0
  0
ARC
  5
4BA
  8
0
  6
CONTINUOUS
 62
     7
 10
171.7676798679
 20
258.3787012796
 30
0.0
 40
0.4999604142904913
 50
359.995347329
 51
90.0003836524
  0
LINE
  5
4BB
  8
0
  6
CONTINUOUS
 62
     7
 10
99.1838223217
 20
258.8786616939
 30
0.0
 11
171.7676765202
 21
258.8786616939
 31
0.0
  0
ARC
  5
4BC
  8
0
  6
CONTINUOUS
 62
     7
 10
99.1838442179
 20
258.378613645
 30
0.0
 40
0.5000480493559752
 50
90.0025088759
 51
203.4353353925
  0
ARC
  5
4BD
  8
0
  6
CONTINUOUS
 62
     7
 10
94.9196261059
 20
256.5291735175
 30
0.0
 40
4.147960663919966
 50
8.126980839
 51
23.4483263665
  0
ARC
  5
4BE
  8
0
  6
CONTINUOUS
 62
     7
 10
97.8874791902
 20
256.9529370144
 30
0.0
 40
1.150006791313186
 50
188.1306793498
 51
8.1294728624
  0
ARC
  5
4BF
  8
0
  6
CONTINUOUS
 62
     7
 10
94.9176259229
 20
256.5286628945
 30
0.0
 40
1.849999368405832
 50
8.1300308802
 51
261.8704790116
  0
ARC
  5
4C0
  8
0
  6
CONTINUOUS
 62
     7
 10
94.4933917186
 20
253.5588119079
 30
0.0
 40
1.149998888747311
 50
261.8696572441
 51
81.8704530265
  0
ARC
  5
4C1
  8
0
  6
CONTINUOUS
 62
     7
 10
94.9176725179
 20
256.5287710849
 30
0.0
 40
4.150110838312113
 50
246.5564651119
 51
261.8698184999
  0
ARC
  5
4C2
  8
0
  6
CONTINUOUS
 62
     7
 10
93.0676572966
 20
252.26250001
 30
0.0
 40
0.5000101498881672
 50
66.5580486345
 51
179.9981308794
  0
LINE
  5
4C3
  8
0
  6
CONTINUOUS
 62
     7
 10
92.567647147
 20
217.2375063197
 30
0.0
 11
92.567647147
 21
252.2625163215
 31
0.0
  0
ARC
  5
4C4
  8
0
  6
CONTINUOUS
 62
     7
 10
92.2677096774
 20
217.2374501203
 30
0.0
 40
0.2999374748446187
 50
300.0007600916
 51
0.0107355241
  0
ARC
  5
4C5
  8
0
  6
CONTINUOUS
 62
     7
 10
92.5675962364
 20
216.7178910418
 30
0.0
 40
0.2999571745817519
 50
119.9858382872
 51
240.0141617128
  0
ARC
  5
4C6
  8
0
  6
CONTINUOUS
 62
     7
 10
92.2676336722
 20
216.1982758221
 30
0.0
 40
0.3000240999836954
 50
300.0079693676
 51
59.9920306324
  0
ARC
  5
4C7
  8
0
  6
CONTINUOUS
 62
     7
 10
92.567596299
 20
215.6786605733
 30
0.0
 40
0.2999572311210717
 50
119.9858458804
 51
240.0141541196
  0
ARC
  5
4C8
  8
0
  6
CONTINUOUS
 62
     7
 10
92.2676336722
 20
215.1590453246
 30
0.0
 40
0.3000240999836954
 50
300.0079693676
 51
59.9920306324
  0
ARC
  5
4C9
  8
0
  6
CONTINUOUS
 62
     7
 10
92.5675962364
 20
214.6394301049
 30
0.0
 40
0.2999571745817519
 50
119.9858382872
 51
240.0141617128
  0
ARC
  5
4CA
  8
0
  6
CONTINUOUS
 62
     7
 10
92.2677096774
 20
214.1198710264
 30
0.0
 40
0.2999374748446228
 50
359.9892644759
 51
59.9992399085
  0
LINE
  5
4CB
  8
0
  6
CONTINUOUS
 62
     7
 10
92.567647147
 20
179.0948048252
 30
0.0
 11
92.567647147
 21
214.119814827
 31
0.0
  0
ARC
  5
4CC
  8
0
  6
CONTINUOUS
 62
     7
 10
93.0676572966
 20
179.0948211367
 30
0.0
 40
0.5000101498881672
 50
180.0018691206
 51
293.4419513655
  0
ARC
  5
4CD
  8
0
  6
CONTINUOUS
 62
     7
 10
94.9176725179
 20
174.8285500618
 30
0.0
 40
4.150110838312113
 50
98.1301815001
 51
113.4435348881
  0
ARC
  5
4CE
  8
0
  6
CONTINUOUS
 62
     7
 10
94.4933917186
 20
177.7985092388
 30
0.0
 40
1.149998888747318
 50
278.1295469735
 51
98.1303427559
  0
ARC
  5
4CF
  8
0
  6
CONTINUOUS
 62
     7
 10
94.9176333036
 20
174.8286656328
 30
0.0
 40
1.849993105660208
 50
98.1297796024
 51
351.8697105057
  0
ARC
  5
4D0
  8
0
  6
CONTINUOUS
 62
     7
 10
97.8874791902
 20
174.4043841322
 30
0.0
 40
1.150006791313168
 50
351.8705271376
 51
171.8693206502
  0
ARC
  5
4D1
  8
0
  6
CONTINUOUS
 62
     7
 10
94.9196261059
 20
174.8281476292
 30
0.0
 40
4.147960663919966
 50
336.5516736335
 51
351.873019161
  0
ARC
  5
4D2
  8
0
  6
CONTINUOUS
 62
     7
 10
99.1838442179
 20
172.9787075017
 30
0.0
 40
0.5000480493559256
 50
156.5646646075
 51
269.9974911241
  0
LINE
  5
4D3
  8
0
  6
CONTINUOUS
 62
     7
 10
154.2477256535
 20
172.4786594528
 30
0.0
 11
99.1838223217
 21
172.4786594528
 31
0.0
  0
ARC
  5
4D4
  8
0
  6
CONTINUOUS
 62
     7
 10
154.2476823632
 20
172.9786902267
 30
0.0
 40
0.5000307757708939
 50
270.0049603935
 51
28.3533673942
  0
ARC
  5
4D5
  8
0
  6
CONTINUOUS
 62
     7
 10
157.7675856306
 20
174.8786771371
 30
0.0
 40
3.499927886164252
 50
154.3204110226
 51
208.3603265655
  0
ARC
  5
4D6
  8
0
  6
CONTINUOUS
 62
     7
 10
155.0706021899
 20
176.1931606229
 30
0.0
 40
0.4999602997449698
 50
90.4889318899
 51
156.1484059659
  0
LINE
  5
4D7
  8
0
  6
CONTINUOUS
 62
     7
 10
156.218553233
 20
176.6931027192
 30
0.0
 11
155.0663358448
 21
176.6931027192
 31
0.0
  0
ARC
  5
4D8
  8
0
  6
CONTINUOUS
 62
     7
 10
156.2186241563
 20
176.4931519251
 30
0.0
 40
0.1999508066665904
 50
3.9098839321
 51
90.0203230487
  0
ARC
  5
4D9
  8
0
  6
CONTINUOUS
 62
     7
 10
155.5959713993
 20
176.4402252338
 30
0.0
 40
0.8248281860628416
 50
324.0193990292
 51
4.6286064753
  0
ARC
  5
4DA
  8
0
  6
CONTINUOUS
 62
     7
 10
157.7676481484
 20
174.8786672331
 30
0.0
 40
1.850000811389835
 50
144.3986992181
 51
35.6013007819
  0
ARC
  5
4DB
  8
0
  6
CONTINUOUS
 62
     7
 10
159.9427809221
 20
176.4359622432
 30
0.0
 40
0.8251384994869051
 50
176.0819860985
 51
215.6000699078
  0
ARC
  5
4DC
  8
0
  6
CONTINUOUS
 62
     7
 10
159.3191497988
 20
176.4786088597
 30
0.0
 40
0.200050910205311
 50
90.0064582537
 51
176.0633347656
  0
LINE
  5
4DD
  8
0
  6
CONTINUOUS
 62
     7
 10
160.4713446377
 20
176.6786597687
 30
0.0
 11
159.3191272495
 21
176.6786597687
 31
0.0
  0
ARC
  5
4DE
  8
0
  6
CONTINUOUS
 62
     7
 10
160.4713959117
 20
176.1787484249
 30
0.0
 40
0.4999113464309731
 50
25.6732372508
 51
90.0058766063
  0
ARC
  5
4DF
  8
0
  6
CONTINUOUS
 62
     7
 10
157.76765037
 20
174.8786208035
 30
0.0
 40
3.500006638488831
 50
331.641417301
 51
25.679992355
  0
ARC
  5
4E0
  8
0
  6
CONTINUOUS
 62
     7
 10
161.2876021968
 20
172.9786476634
 30
0.0
 40
0.499988211616022
 50
151.6384577075
 51
269.9963841403
  0
LINE
  5
4E1
  8
0
  6
CONTINUOUS
 62
     7
 10
171.7676765202
 20
172.4786594528
 30
0.0
 11
161.2875706432
 21
172.4786594528
 31
0.0
  0
ARC
  5
4E2
  8
0
  6
CONTINUOUS
 62
     7
 10
171.7676798679
 20
172.9786198671
 30
0.0
 40
0.4999604142904944
 50
269.9996163476
 51
0.004652671
  0
LINE
  5
4E3
  8
0
  6
CONTINUOUS
 62
     7
 10
172.2676402805
 20
175.9786590951
 30
0.0
 11
172.2676402805
 21
172.9786604661
 31
0.0
  0
ARC
  5
4E4
  8
0
  6
CONTINUOUS
 62
     7
 10
172.7676832503
 20
175.9786171373
 30
0.0
 40
0.500042971547539
 50
90.0022463477
 51
179.9951923938
  0
LINE
  5
4E5
  8
0
  6
CONTINUOUS
 62
     7
 10
177.7676588772
 20
176.4786601084
 30
0.0
 11
172.7676636456
 21
176.4786601084
 31
0.0
  0
ARC
  5
4E6
  8
0
  6
CONTINUOUS
 62
     7
 10
177.7676677897
 20
175.9786687366
 30
0.0
 40
0.4999913719400925
 50
296.5605889821
 51
90.0010213101
  0
LINE
  5
4E7
  8
0
  6
CONTINUOUS
 62
     7
 10
176.9912487743
 20
175.0314481574
 30
0.0
 11
177.9912358997
 21
175.5314454454
 31
0.0
  0
ARC
  5
4E8
  8
0
  6
CONTINUOUS
 62
     7
 10
176.7676589969
 20
175.4785805723
 30
0.0
 40
0.499919778615011
 50
270.001461837
 51
296.5674673415
  0
LINE
  5
4E9
  8
0
  6
CONTINUOUS
 62
     7
 10
174.267674136
 20
174.9786607939
 30
0.0
 11
176.7676717518
 21
174.9786607939
 31
0.0
  0
ARC
  5
4EA
  8
0
  6
CONTINUOUS
 62
     7
 10
174.267671061
 20
174.4786405035
 30
0.0
 40
0.500020290375337
 50
89.9996476433
 51
179.9977910982
  0
LINE
  5
4EB
  8
0
  6
CONTINUOUS
 62
     7
 10
173.767650771
 20
172.9786604661
 30
0.0
 11
173.767650771
 21
174.4786597806
 31
0.0
  0
ARC
  5
4EC
  8
0
  6
CONTINUOUS
 62
     7
 10
174.267671061
 20
172.9786797431
 30
0.0
 40
0.5000202903753086
 50
180.0022089018
 51
270.0003523567
  0
LINE
  5
4ED
  8
0
  6
CONTINUOUS
 62
     7
 10
186.26763885
 20
172.4786594528
 30
0.0
 11
174.267674136
 21
172.4786594528
 31
0.0
  0
ARC
  5
4EE
  8
0
  6
CONTINUOUS
 62
     7
 10
186.2676438021
 20
172.7786446783
 30
0.0
 40
0.2999852255343883
 50
269.9990541808
 51
0.0030802834
  0
LINE
  5
4EF
  8
0
  6
CONTINUOUS
 62
     7
 10
186.5676290272
 20
173.1786601263
 30
0.0
 11
186.5676290272
 21
172.7786608058
 31
0.0
  0
ARC
  5
4F0
  8
0
  6
CONTINUOUS
 62
     7
 10
186.8677080678
 20
173.1785824301
 30
0.0
 40
0.3000790506499316
 50
90.0055865456
 51
179.9851650281
  0
LINE
  5
4F1
  8
0
  6
CONTINUOUS
 62
     7
 10
189.8648387669
 20
173.4786614793
 30
0.0
 11
186.867678809
 21
173.4786614793
 31
0.0
  0
ARC
  5
4F2
  8
0
  6
CONTINUOUS
 62
     7
 10
189.8648855581
 20
173.8786488517
 30
0.0
 40
0.3999873751079812
 50
269.9932974347
 51
315.0006214141
  0
LINE
  5
4F3
  8
0
  6
CONTINUOUS
 62
     7
 10
190.2840978382
 20
173.7322121876
 30
0.0
 11
190.147722411
 21
173.5958181339
 31
0.0
  0
LINE
  5
4F4
  8
0
  6
CONTINUOUS
 62
     7
 10
262.174571204
 20
253.0786603707
 30
0.0
 11
256.4077622173
 21
253.0786603707
 31
0.0
  0
LINE
  5
4F5
  8
0
  6
CONTINUOUS
 62
     7
 10
262.174571204
 20
257.2786606866
 30
0.0
 11
262.174571204
 21
253.0786603707
 31
0.0
  0
ARC
  5
4F6
  8
0
  6
CONTINUOUS
 62
     7
 10
261.6746447069
 20
257.2787351986
 30
0.0
 40
0.4999265026644853
 50
359.9914602981
 51
90.0042706833
  0
LINE
  5
4F7
  8
0
  6
CONTINUOUS
 62
     7
 10
254.1746145962
 20
257.7786616999
 30
0.0
 11
261.6746074436
 21
257.7786616999
 31
0.0
  0
ARC
  5
4F8
  8
0
  6
CONTINUOUS
 62
     7
 10
254.1746363206
 20
257.2786166089
 30
0.0
 40
0.5000450914235968
 50
90.0024892153
 51
179.9949495262
  0
LINE
  5
4F9
  8
0
  6
CONTINUOUS
 62
     7
 10
253.6745912312
 20
256.2400311249
 30
0.0
 11
253.6745912312
 21
257.2786606866
 31
0.0
  0
ARC
  5
4FA
  8
0
  6
CONTINUOUS
 62
     7
 10
254.1747019341
 20
256.2401006862
 30
0.0
 40
0.5001107077602696
 50
180.0079693707
 51
220.0000433812
  0
LINE
  5
4FB
  8
0
  6
CONTINUOUS
 62
     7
 10
256.02474277
 20
253.2572656888
 30
0.0
 11
253.7915951489
 21
255.9186354297
 31
0.0
  0
ARC
  5
4FC
  8
0
  6
CONTINUOUS
 62
     7
 10
256.4077369223
 20
253.5786017544
 30
0.0
 40
0.4999413843134437
 50
219.9969986961
 51
270.0028989371
  0
LINE
  5
4FD
  8
0
  6
CONTINUOUS
 62
     7
 10
303.2717651604
 20
235.6315072644
 30
0.0
 11
305.3128964184
 21
238.5465487855
 31
0.0
  0
ARC
  5
4FE
  8
0
  6
CONTINUOUS
 62
     7
 10
301.6334775226
 20
236.7786277276
 30
0.0
 40
1.999967935107342
 50
269.9998387533
 51
325.0004902444
  0
LINE
  5
4FF
  8
0
  6
CONTINUOUS
 62
     7
 10
284.174585986
 20
234.7786597925
 30
0.0
 11
301.6334718941
 21
234.7786597925
 31
0.0
  0
ARC
  5
500
  8
0
  6
CONTINUOUS
 62
     7
 10
284.1745996952
 20
236.528660545
 30
0.0
 40
1.750000752562338
 50
90.0004488467
 51
269.9995511533
  0
LINE
  5
501
  8
0
  6
CONTINUOUS
 62
     7
 10
284.174585986
 20
245.7786597329
 30
0.0
 11
284.174585986
 21
238.2786612975
 31
0.0
  0
ARC
  5
502
  8
0
  6
CONTINUOUS
 62
     7
 10
283.6746136565
 20
245.7786884163
 30
0.0
 40
0.4999723303297599
 50
359.9967129426
 51
90.0024332792
  0
LINE
  5
503
  8
0
  6
CONTINUOUS
 62
     7
 10
264.6746284245
 20
246.2786607462
 30
0.0
 11
283.6745924233
 21
246.2786607462
 31
0.0
  0
ARC
  5
504
  8
0
  6
CONTINUOUS
 62
     7
 10
264.6745644185
 20
245.7787013895
 30
0.0
 40
0.4999593607649868
 50
89.9926648575
 51
180.004773884
  0
LINE
  5
505
  8
0
  6
CONTINUOUS
 62
     7
 10
264.1746050594
 20
238.2786612975
 30
0.0
 11
264.1746050594
 21
245.7786597329
 31
0.0
  0
ARC
  5
506
  8
0
  6
CONTINUOUS
 62
     7
 10
264.1746112184
 20
236.528660545
 30
0.0
 40
1.750000752519478
 50
269.999798352
 51
90.000201648
  0
LINE
  5
507
  8
0
  6
CONTINUOUS
 62
     7
 10
253.6745912312
 20
234.7786597925
 30
0.0
 11
264.1746050594
 21
234.7786597925
 31
0.0
  0
ARC
  5
508
  8
0
  6
CONTINUOUS
 62
     7
 10
253.6745944107
 20
236.778637223
 30
0.0
 40
1.999977430467446
 50
179.9993440315
 51
269.9999089118
  0
LINE
  5
509
  8
0
  6
CONTINUOUS
 62
     7
 10
251.6746169804
 20
239.2502337712
 30
0.0
 11
251.6746169804
 21
236.7786601203
 31
0.0
  0
ARC
  5
50A
  8
0
  6
CONTINUOUS
 62
     7
 10
253.6743146648
 20
239.2503507521
 30
0.0
 40
1.99969768780665
 50
134.9960874942
 51
180.0033517636
  0
LINE
  5
50B
  8
0
  6
CONTINUOUS
 62
     7
 10
255.8807975529
 20
244.284835087
 30
0.0
 11
252.2604114292
 21
240.6644471007
 31
0.0
  0
ARC
  5
50C
  8
0
  6
CONTINUOUS
 62
     7
 10
256.5901492986
 20
243.5754919346
 30
0.0
 40
1.003168782906584
 50
10.4906658595
 51
135.0003470513
  0
LINE
  5
50D
  8
0
  6
CONTINUOUS
 62
     7
 10
257.5765496967
 20
243.7581442314
 30
0.0
 11
258.0884939907
 21
240.9936528671
 31
0.0
  0
ARC
  5
50E
  8
0
  6
CONTINUOUS
 62
     7
 10
257.7017018459
 20
240.9220179315
 30
0.0
 40
0.3933697081483363
 50
227.0977939989
 51
10.492445249
  0
ARC
  5
50F
  8
0
  6
CONTINUOUS
 62
     7
 10
256.1745951649
 20
239.2786498908
 30
0.0
 40
1.850001267450367
 50
47.1005856974
 51
312.3374948832
  0
ARC
  5
510
  8
0
  6
CONTINUOUS
 62
     7
 10
257.724027223
 20
237.5780600843
 30
0.0
 40
0.4505954798521948
 50
0.0024661109
 51
132.3355084698
  0
ARC
  5
511
  8
0
  6
CONTINUOUS
 62
     7
 10
258.6745692156
 20
237.5786082659
 30
0.0
 40
0.4999467928751983
 50
180.0606010132
 51
270.0019765878
  0
LINE
  5
512
  8
0
  6
CONTINUOUS
 62
     7
 10
261.6746074436
 20
237.0786614734
 30
0.0
 11
258.6745864628
 21
237.0786614734
 31
0.0
  0
ARC
  5
513
  8
0
  6
CONTINUOUS
 62
     7
 10
261.6746494718
 20
237.5785832098
 30
0.0
 40
0.4999217381953121
 50
269.995183172
 51
0.0088724032
  0
LINE
  5
514
  8
0
  6
CONTINUOUS
 62
     7
 10
262.174571204
 20
251.0786600429
 30
0.0
 11
262.174571204
 21
237.578660624
 31
0.0
  0
LINE
  5
515
  8
0
  6
CONTINUOUS
 62
     7
 10
258.6745864628
 20
251.0786600429
 30
0.0
 11
262.174571204
 21
251.0786600429
 31
0.0
  0
ARC
  5
516
  8
0
  6
CONTINUOUS
 62
     7
 10
258.6745809949
 20
250.5787017485
 30
0.0
 40
0.4999582943420272
 50
89.9993733772
 51
180.0048956414
  0
LINE
  5
517
  8
0
  6
CONTINUOUS
 62
     7
 10
258.1746227024
 20
249.5786607283
 30
0.0
 11
258.1746227024
 21
250.5786590296
 31
0.0
  0
LINE
  5
518
  8
0
  6
CONTINUOUS
 62
     7
 10
256.96691339
 20
249.5786607283
 30
0.0
 11
258.1746227024
 21
249.5786607283
 31
0.0
  0
ARC
  5
519
  8
0
  6
CONTINUOUS
 62
     7
 10
256.9669485243
 20
250.5787273317
 30
0.0
 40
1.000066604049911
 50
220.0019105467
 51
269.9979870864
  0
LINE
  5
51A
  8
0
  6
CONTINUOUS
 62
     7
 10
252.1425134419
 20
254.772467913
 30
0.0
 11
256.2008744953
 21
249.9358713645
 31
0.0
  0
ARC
  5
51B
  8
0
  6
CONTINUOUS
 62
     7
 10
253.6741042123
 20
256.0578390439
 30
0.0
 40
1.999487242347981
 50
179.9941486201
 51
220.004694927
  0
LINE
  5
51C
  8
0
  6
CONTINUOUS
 62
     7
 10
251.6746169804
 20
257.7786616999
 30
0.0
 11
251.6746169804
 21
256.0580432433
 31
0.0
  0
ARC
  5
51D
  8
0
  6
CONTINUOUS
 62
     7
 10
253.6745951857
 20
257.7786838222
 30
0.0
 40
1.999978205475815
 50
90.000113291
 51
180.0006337657
  0
LINE
  5
51E
  8
0
  6
CONTINUOUS
 62
     7
 10
264.1746050594
 20
259.7786620277
 30
0.0
 11
253.6745912312
 21
259.7786620277
 31
0.0
  0
ARC
  5
51F
  8
0
  6
CONTINUOUS
 62
     7
 10
264.1746117861
 20
258.0286622065
 30
0.0
 40
1.749999821198994
 50
269.9997797678
 51
90.0002202322
  0
LINE
  5
520
  8
0
  6
CONTINUOUS
 62
     7
 10
264.1746050594
 20
248.7786620873
 30
0.0
 11
264.1746050594
 21
256.2786623853
 31
0.0
  0
ARC
  5
521
  8
0
  6
CONTINUOUS
 62
     7
 10
264.6745633586
 20
248.7786193708
 30
0.0
 40
0.4999583010142788
 50
179.9951046416
 51
270.0074566169
  0
LINE
  5
522
  8
0
  6
CONTINUOUS
 62
     7
 10
283.6745924233
 20
248.278661074
 30
0.0
 11
264.6746284245
 21
248.278661074
 31
0.0
  0
ARC
  5
523
  8
0
  6
CONTINUOUS
 62
     7
 10
283.6746147161
 20
248.7786323443
 30
0.0
 40
0.4999712707487322
 50
269.9974452826
 51
0.0034084957
  0
LINE
  5
524
  8
0
  6
CONTINUOUS
 62
     7
 10
284.174585986
 20
256.2786623853
 30
0.0
 11
284.174585986
 21
248.7786620873
 31
0.0
  0
ARC
  5
525
  8
0
  6
CONTINUOUS
 62
     7
 10
284.1745991276
 20
258.0286622065
 30
0.0
 40
1.749999821235409
 50
90.0004302626
 51
269.9995697374
  0
LINE
  5
526
  8
0
  6
CONTINUOUS
 62
     7
 10
301.6334718941
 20
259.7786620277
 30
0.0
 11
284.174585986
 21
259.7786620277
 31
0.0
  0
ARC
  5
527
  8
0
  6
CONTINUOUS
 62
     7
 10
301.6334791739
 20
257.7786997701
 30
0.0
 40
1.999962257621427
 50
34.9993599414
 51
90.0002085553
  0
LINE
  5
528
  8
0
  6
CONTINUOUS
 62
     7
 10
305.3128964184
 20
256.0107730347
 30
0.0
 11
303.2717651604
 21
258.9258126932
 31
0.0
  0
ARC
  5
529
  8
0
  6
CONTINUOUS
 62
     7
 10
303.6747069465
 20
254.8636303674
 30
0.0
 40
1.999900258762928
 50
359.9996547373
 51
35.001643945
  0
LINE
  5
52A
  8
0
  6
CONTINUOUS
 62
     7
 10
305.6746072052
 20
252.7786590177
 30
0.0
 11
305.6746072052
 21
254.863618316
 31
0.0
  0
ARC
  5
52B
  8
0
  6
CONTINUOUS
 62
     7
 10
305.1746103202
 20
252.7786586146
 30
0.0
 40
0.4999968849827415
 50
270.0003807081
 51
0.0000461826
  0
LINE
  5
52C
  8
0
  6
CONTINUOUS
 62
     7
 10
304.1745967148
 20
252.2786617297
 30
0.0
 11
305.1746136425
 21
252.2786617297
 31
0.0
  0
LINE
  5
52D
  8
0
  6
CONTINUOUS
 62
     7
 10
304.1745967148
 20
253.2786600309
 30
0.0
 11
304.1745967148
 21
252.2786617297
 31
0.0
  0
LINE
  5
52E
  8
0
  6
CONTINUOUS
 62
     7
 10
302.6745862244
 20
253.2786600309
 30
0.0
 11
304.1745967148
 21
253.2786600309
 31
0.0
  0
LINE
  5
52F
  8
0
  6
CONTINUOUS
 62
     7
 10
302.6745862244
 20
241.2786599266
 30
0.0
 11
302.6745862244
 21
253.2786600309
 31
0.0
  0
LINE
  5
530
  8
0
  6
CONTINUOUS
 62
     7
 10
304.1745967148
 20
241.2786599266
 30
0.0
 11
302.6745862244
 21
241.2786599266
 31
0.0
  0
LINE
  5
531
  8
0
  6
CONTINUOUS
 62
     7
 10
304.1745967148
 20
242.2786600905
 30
0.0
 11
304.1745967148
 21
241.2786599266
 31
0.0
  0
LINE
  5
532
  8
0
  6
CONTINUOUS
 62
     7
 10
305.1746136425
 20
242.2786600905
 30
0.0
 11
304.1745967148
 21
242.2786600905
 31
0.0
  0
ARC
  5
533
  8
0
  6
CONTINUOUS
 62
     7
 10
305.174608164
 20
241.7786610494
 30
0.0
 40
0.4999990411754429
 50
359.9999874535
 51
89.9993722116
  0
LINE
  5
534
  8
0
  6
CONTINUOUS
 62
     7
 10
305.6746072052
 20
239.6937016415
 30
0.0
 11
305.6746072052
 21
241.7786609399
 31
0.0
  0
ARC
  5
535
  8
0
  6
CONTINUOUS
 62
     7
 10
303.6747183527
 20
239.6936878563
 30
0.0
 40
1.999888852603466
 50
324.9982530159
 51
0.0003949392
  0
ARC
  5
536
  8
0
  6
CONTINUOUS
 62
     7
 10
300.1745890319
 20
250.9930985765
 30
0.0
 40
0.5000229423321022
 50
0.0028733494
 51
76.3480839088
  0
ARC
  5
537
  8
0
  6
CONTINUOUS
 62
     7
 10
300.5286718935
 20
252.4507371471
 30
0.0
 40
1.000005349545917
 50
97.1372794274
 51
256.3456011034
  0
ARC
  5
538
  8
0
  6
CONTINUOUS
 62
     7
 10
300.1746100052
 20
255.2786610617
 30
0.0
 40
1.849997016840641
 50
277.135947608
 51
172.8636390398
  0
ARC
  5
539
  8
0
  6
CONTINUOUS
 62
     7
 10
297.346690126
 20
255.6327128922
 30
0.0
 40
1.00000009579263
 50
172.8632768688
 51
352.8640283517
  0
ARC
  5
53A
  8
0
  6
CONTINUOUS
 62
     7
 10
300.1734336756
 20
255.2790294711
 30
0.0
 40
3.848784229824762
 50
152.6245184923
 51
172.8669125155
  0
ARC
  5
53B
  8
0
  6
CONTINUOUS
 62
     7
 10
296.3116188302
 20
257.2786444756
 30
0.0
 40
0.5000172247725124
 50
332.6309834928
 51
89.9974157245
  0
LINE
  5
53C
  8
0
  6
CONTINUOUS
 62
     7
 10
296.311641383
 20
257.7786616999
 30
0.0
 11
286.1745900391
 21
257.7786616999
 31
0.0
  0
LINE
  5
53D
  8
0
  6
CONTINUOUS
 62
     7
 10
286.1745900391
 20
257.7786616999
 30
0.0
 11
286.1745900391
 21
237.2786611336
 31
0.0
  0
ARC
  5
53E
  8
0
  6
CONTINUOUS
 62
     7
 10
286.6745917271
 20
237.2786618079
 30
0.0
 40
0.5000016880297266
 50
180.0000772666
 51
270.0024839919
  0
LINE
  5
53F
  8
0
  6
CONTINUOUS
 62
     7
 10
286.6746134041
 20
236.7786601203
 30
0.0
 11
296.311641383
 21
236.7786601203
 31
0.0
  0
ARC
  5
540
  8
0
  6
CONTINUOUS
 62
     7
 10
296.3116194042
 20
237.2786769954
 30
0.0
 40
0.500016875512775
 50
270.0025184961
 51
27.3690822866
  0
ARC
  5
541
  8
0
  6
CONTINUOUS
 62
     7
 10
300.1734223759
 20
239.2782888396
 30
0.0
 40
3.848772581745105
 50
187.1330565307
 51
207.3755124615
  0
ARC
  5
542
  8
0
  6
CONTINUOUS
 62
     7
 10
297.3466914647
 20
238.9245982353
 30
0.0
 40
1.000000095780012
 50
7.1365890812
 51
187.1361056983
  0
ARC
  5
543
  8
0
  6
CONTINUOUS
 62
     7
 10
300.1746036295
 20
239.2786687896
 30
0.0
 40
1.849991688284606
 50
187.1366322909
 51
82.8638327301
  0
ARC
  5
544
  8
0
  6
CONTINUOUS
 62
     7
 10
300.5286599195
 20
242.1065840109
 30
0.0
 40
1.000001356511776
 50
103.6537484595
 51
262.8633833447
  0
ARC
  5
545
  8
0
  6
CONTINUOUS
 62
     7
 10
300.1745876217
 20
243.5642224897
 30
0.0
 40
0.5000243524450049
 50
283.6520431274
 51
359.9972130611
  0
LINE
  5
546
  8
0
  6
CONTINUOUS
 62
     7
 10
300.6746119736
 20
243.5641981679
 30
0.0
 11
300.6746119736
 21
250.9931236523
 31
0.0
  0
ARC
  5
547
  8
0
  6
CONTINUOUS
 62
     7
 10
297.3466905792
 20
255.632716512
 30
0.0
 40
1.000000095775418
 50
172.8634858855
 51
352.8638193349
  0
ARC
  5
548
  8
0
  6
CONTINUOUS
 62
     7
 10
257.7016873624
 20
240.9220442822
 30
0.0
 40
0.3933791518867364
 50
227.1019519682
 51
10.4882872797
  0
DIMENSION
  5
549
  8
0
  6
CONTINUOUS
 62
     7
  2
*D3
 10
70.7676545856
 20
170.6786605733
 30
0.0
 11
70.7676545856
 21
216.3984527322
 31
0.0
 70
   160
  3
SLDDIMSTYLE0
 13
92.7676545856
 23
260.6786605733
 33
0.0
 14
92.7676545856
 24
170.6786605733
 34
0.0
 50
90.0
  0
DIMENSION
  5
55C
  8
0
  6
CONTINUOUS
 62
     7
  2
*D4
 10
195.7676545857
 20
274.0038709565
 30
0.0
 11
139.7396052682
 21
274.0038709565
 31
0.0
 70
   160
  3
SLDDIMSTYLE0
 13
90.7676545856
 23
258.6786605733
 33
0.0
 14
195.7676545857
 24
260.4786605733
 34
0.0
 50
0.0
  0
DIMENSION
  5
56D
  8
0
  6
CONTINUOUS
 62
     7
  2
*D5
 10
525.2878422151
 20
274.5329364649
 30
0.0
 11
470.3774668397
 21
274.5329364649
 31
0.0
 70
   160
  3
SLDDIMSTYLE0
 13
420.2878422151
 23
260.4786605733
 33
0.0
 14
525.2878422151
 24
258.6786605733
 34
0.0
 50
0.0
  0
DIMENSION
  5
57E
  8
0
  6
CONTINUOUS
 62
     7
  2
*D6
 10
544.4694580207
 20
260.6786605733
 30
0.0
 11
544.4694580207
 21
216.643456542
 31
0.0
 70
   160
  3
SLDDIMSTYLE0
 13
523.2878422151
 23
170.6786605733
 33
0.0
 14
523.2878422151
 24
260.6786605733
 34
0.0
 50
90.0
  0
LINE
  5
590
  8
0
  6
HIDDEN
 62
     7
 10
351.5125243929
 20
280.7686605734
 30
0.0
 11
355.5125243929
 21
252.2236605734
 31
0.0
  0
LINE
  5
591
  8
0
  6
HIDDEN
 62
     7
 10
355.5125243929
 20
252.2236605734
 30
0.0
 11
347.5125243929
 21
244.2236605734
 31
0.0
  0
LINE
  5
592
  8
0
  6
HIDDEN
 62
     7
 10
347.5125243929
 20
244.2236605734
 30
0.0
 11
355.5125243929
 21
187.1336605733
 31
0.0
  0
LINE
  5
593
  8
0
  6
HIDDEN
 62
     7
 10
355.5125243929
 20
187.1336605733
 30
0.0
 11
347.5125243929
 21
179.1336605733
 31
0.0
  0
LINE
  5
594
  8
0
  6
HIDDEN
 62
     7
 10
347.5125243929
 20
179.1336605733
 30
0.0
 11
351.5125243929
 21
150.5886605733
 31
0.0
  0
LINE
  5
595
  8
0
  6
HIDDEN
 62
     7
 10
371.5125243929
 20
280.7686605734
 30
0.0
 11
375.5125243929
 21
252.2236605734
 31
0.0
  0
LINE
  5
596
  8
0
  6
HIDDEN
 62
     7
 10
375.5125243929
 20
252.2236605734
 30
0.0
 11
367.5125243929
 21
244.2236605734
 31
0.0
  0
LINE
  5
597
  8
0
  6
HIDDEN
 62
     7
 10
367.5125243929
 20
244.2236605734
 30
0.0
 11
375.5125243929
 21
187.1336605733
 31
0.0
  0
LINE
  5
598
  8
0
  6
HIDDEN
 62
     7
 10
375.5125243929
 20
187.1336605733
 30
0.0
 11
367.5125243929
 21
179.1336605733
 31
0.0
  0
LINE
  5
599
  8
0
  6
HIDDEN
 62
     7
 10
367.5125243929
 20
179.1336605733
 30
0.0
 11
371.5125243929
 21
150.5886605733
 31
0.0
  0
ENDSEC
  0
EOF
